Browse Collections Artists Sources   Search Dates

Add Show    List Management    Help


Grateful Dead 07/04/81
Manor Downs, Austin, TX
Comments Add Comment    Source Collectors    Add to Collection    Add to Want List    History
Source # 140286 Other Sources
Entered by Matt Vernon
Checksums ffp , flac-md5
Disc Counts 0 / 0
Media Size
Date Circulated
Date Added
12/18/2017
12/18/2017
Source Summary flac16/48kHz; Source Info: Jim Vita's Master (FOB) Audience Cassette; Nakamichi CM300 mics > Sony TC-D5 > Dat 16/48; Transfer Info: Dat 16/48 (Sony PCM-R500) > Tascam DA-3000 16/48 > Adobe Audition 3.0 > TLH flac16/48 
  Archive
Source Information - Download Text | Download Zip
Grateful Dead
Manor Downs
Austin, TX
Saturday July 4, 1981

Source Info:
Jim Vita's Master (FOB) Audience Cassette;  Nakamichi CM300 mics > Sony TC-D5 > Dat 16/48

Transfer Info:
Dat 16/48 (Sony PCM-R500) > Tascam DA-3000 16/48 > Adobe Audition 3.0 > TLH flac16/48

Notes:
- Thanks to Jim Vita for the master recording
- Thanks to Jim Wise for the transfer
- Thanks to Charlie Miller for coordinating this effort
- Thanks to Charlie Miller for the shnid110199 soundboard source which supplies a 0:57 patch at the end of "Drums"
- It's the 4th of July, some fireworks can heard throughout
- Between song transitions smoothed
- 2nd set "Bird Song"'s are always a treat
- Not Fade Away space included in "Not Fade Away"
- There are several nice audience captures in circulation, this may be the cream of the crop

Mastered by Scott Clugston
December 18, 2017

Set 1:
01 Jack Straw
02 Peggy O
03 Me & My Uncle >
04 Big River
05 Loser
06 Little Red Rooster
07 Tennessee Jed >
08 New Minglewood Blues
09 China Cat Sunflower >
10 I Know You Rider

Set 2:
12 Crowd/Tuning
13 Feel Like A Stranger
14 Bird Song
15 Playin' In The Band >
    Jam >
16 Drums >
17 Space >
18 Not Fade Away
19 Wharf Rat >
20 Sugar Magnolia
21 Encore Break
22 One More Saturday Night



    length     expanded size    cdr  WAVE problems  fmt   ratio  filename
     7:15.547      83625004 B   cxx   --   ---xx   flac  0.6160  gd81-07-04 01 Jack Straw.flac
     8:14.973      95034924 B   cxx   --   ---xx   flac  0.5968  gd81-07-04 02 Peggy O.flac
     3:01.693      34885164 B   cxx   --   ---xx   flac  0.6215  gd81-07-04 03 Me & My Uncle.flac
     5:52.240      67630124 B   cxx   --   ---xx   flac  0.6315  gd81-07-04 04 Big River.flac
     7:03.360      81285164 B   cxx   --   ---xx   flac  0.6010  gd81-07-04 05 Loser.flac
     8:50.720     101898284 B   cxx   --   ---xx   flac  0.6088  gd81-07-04 06 Little Red Rooster.flac
     8:21.240      96238124 B   cxx   --   ---xx   flac  0.6104  gd81-07-04 07 Tennessee Jed.flac
     6:33.507      75553324 B   cxx   --   ---xx   flac  0.6220  gd81-07-04 08 New Minglewood Blues.flac
     5:57.093      68561964 B   cxx   --   ---xx   flac  0.6134  gd81-07-04 09 China Cat Sunflower.flac
     6:09.293      70904364 B   cxx   --   ---xx   flac  0.6158  gd81-07-04 10 I Know You Rider.flac
     0:51.933       9971244 B   cxx   --   ---xx   flac  0.5426  gd81-07-04 11 Crowd_Tuning.flac
     8:57.467     103193644 B   cxx   --   ---xx   flac  0.6161  gd81-07-04 12 Feel Like A Stranger.flac
    11:40.253     134448684 B   cxx   --   ---xx   flac  0.6066  gd81-07-04 13 Bird Song.flac
    15:05.253     173808684 B   cxx   --   ---xx   flac  0.6156  gd81-07-04 14 Playin' In The Band.flac
     7:49.653      90173484 B   cxx   --   ---xx   flac  0.5673  gd81-07-04 15 Drums.flac
     5:53.813      67932204 B   cxx   --   ---xx   flac  0.5527  gd81-07-04 16 Space.flac
    10:53.533     125478444 B   cxx   --   ---xx   flac  0.6018  gd81-07-04 17 Not Fade Away.flac
     9:56.373     114503724 B   cxx   --   ---xx   flac  0.5845  gd81-07-04 18 Wharf Rat.flac
     9:43.653     112061484 B   cxx   --   ---xx   flac  0.6246  gd81-07-04 19 Sugar Magnolia.flac
     0:41.027       7877164 B   cxx   --   ---xx   flac  0.5417  gd81-07-04 20 Encore Break.flac
     4:44.399      54604636 B   cxx   --   ---xx   flac  0.6304  gd81-07-04 21 One More Saturday Night.flac
   153:37.026    1769669836 B                            0.6060  (21 files)

No errors occured.



Show Checksums
ffp
gd81-07-04 01 Jack Straw.flac:4ae7f29f907e0204c782e639f3d7fc0e
gd81-07-04 02 Peggy O.flac:c83f4d7ff0661509c67d655bd9829625
gd81-07-04 03 Me & My Uncle.flac:a3b5dbbdcbb1c711aefd65843dc305a1
gd81-07-04 04 Big River.flac:46ce4b8715c077105a5e3c73d472b072
gd81-07-04 05 Loser.flac:1474f4826e28a14f4a9a1400e19fdb1c
gd81-07-04 06 Little Red Rooster.flac:96833e9ae150328b428e71e7ca43aaec
gd81-07-04 07 Tennessee Jed.flac:0bdc6afa02faa965c4aa467adcfbc349
gd81-07-04 08 New Minglewood Blues.flac:82d8fcba01e1dee65693fa8da140df93
gd81-07-04 09 China Cat Sunflower.flac:c8846a82f024174201eb7e6d828d9104
gd81-07-04 10 I Know You Rider.flac:0bbe221b67b60fd98ac82f1affde8134
gd81-07-04 11 Crowd_Tuning.flac:b2d33e713d1ef0fdde06013a28bc4bd0
gd81-07-04 12 Feel Like A Stranger.flac:0202edf9f08edba422ee95b2f0ebb6e5
gd81-07-04 13 Bird Song.flac:e0a2c1081cabf5973b8f84da4785899d
gd81-07-04 14 Playin' In The Band.flac:6383f52e1b2a7e886402373719ad6086
gd81-07-04 15 Drums.flac:8a88dfd1de75592002d423289bfa1955
gd81-07-04 16 Space.flac:cf1d2d896bb142e08ea148798cc52577
gd81-07-04 17 Not Fade Away.flac:7e580269a1fb46f8295eed9a136e2c97
gd81-07-04 18 Wharf Rat.flac:ce9b70f8276c67e563defba85d073c10
gd81-07-04 19 Sugar Magnolia.flac:592191cf62fd2720129146aafd5b9bd7
gd81-07-04 20 Encore Break.flac:ab8fff51d5195e7dbec6b40ea8d24167
gd81-07-04 21 One More Saturday Night.flac:3f5f6e85dde7fbd82ef3f82453d24deb
flac-md5
eddf353e7e25d5aedc9e3579cc9b9baf *gd81-07-04 01 Jack Straw.flac
bfae22893ce2cd4fc0e79bd11c73dcb7 *gd81-07-04 02 Peggy O.flac
13e3e70cc71014c88b8d6085fd73303b *gd81-07-04 03 Me & My Uncle.flac
e6f0b77fccdf6d3b6297307a052d1dcf *gd81-07-04 04 Big River.flac
153006d9403443e6eaaae74280dee4fe *gd81-07-04 05 Loser.flac
636ff8cee7947a75eda582f4810fedf1 *gd81-07-04 06 Little Red Rooster.flac
036363aa3301a3336163f4a94453c1d3 *gd81-07-04 07 Tennessee Jed.flac
25b8accf8fa34fe002fa2f30d102158e *gd81-07-04 08 New Minglewood Blues.flac
a4e68c59afd4ed83d91342a95ef0c464 *gd81-07-04 09 China Cat Sunflower.flac
8a441d2c19aa5b5a5a5142c734663365 *gd81-07-04 10 I Know You Rider.flac
22253a5dc236beb11a71b1db99d12578 *gd81-07-04 11 Crowd_Tuning.flac
3b7ff9303ad697df2ffc616d455e6137 *gd81-07-04 12 Feel Like A Stranger.flac
33af23ca6fcf5079d3b671475dbff683 *gd81-07-04 13 Bird Song.flac
e60553fbce89bfa9e5a5d069a743f4dd *gd81-07-04 14 Playin' In The Band.flac
184f83d964dbe42a4db21746e7e4f2de *gd81-07-04 15 Drums.flac
485b935d4e70f04a73aeb39de627799e *gd81-07-04 16 Space.flac
cc81579ae598ff61b521f89e35ecd6e9 *gd81-07-04 17 Not Fade Away.flac
08d0412e5b04c8f7f0cf2422dda782cf *gd81-07-04 18 Wharf Rat.flac
e5b070ad3da148eada6dd3a82be9216d *gd81-07-04 19 Sugar Magnolia.flac
a62e6581b7c442f98d02a0ee9701835f *gd81-07-04 20 Encore Break.flac
8c4f90fae8e818d2148a8315dc516b6a *gd81-07-04 21 One More Saturday Night.flac

Comments
Add Comment
Other Sources (comments)
Master FOB Audience... (1) Recording Info:SBD ->... (0) flac16; SBD ->... (0) flac16; Nakamichi... (0) flac16; Recording... (0) flac24; AUD: Unknown... (0) flac16; AUD: Unknown... (0)
Date User Comment