Browse Collections Artists Sources   Search Dates

Add Show    List Management    Help


Grateful Dead 04/02/87
The Centrum, Worcester, MA
Comments Add Comment    Source Collectors    Add to Collection    Add to Want List    History
Source # 140289 Other Sources
Entered by Matt Vernon
Checksums ffp , flac-md5
Disc Counts 0 / 0
Media Size
Date Circulated
Date Added
12/19/2017
12/19/2017
Source Summary flac24; Recording Info: UltraMatrix SBD > Cassette Master (TDK MA-R90); Transfer Info: Cassette Master (Nakamichi CR-7A) > Tascam DA-3000 (DSF 1-bit/5.8 MHz) > KORG AudioGate 4 > Samplitude Pro X3 Suite > FLAC/24; All Transfers and Mastering By Charlie Miller 
  Archive
Source Information - Download Text | Download Zip
Grateful Dead - April 2, 1987
The Centrum - Worcester, MA

Recording Info:
UltraMatrix SBD > Cassette Master (TDK MA-R90)

Transfer Info:
Cassette Master (Nakamichi CR-7A) > Tascam DA-3000 (DSF 1-bit/5.8 MHz) >
KORG AudioGate 4 > Samplitude Pro X3 Suite > FLAC/24
(1 Disc FLAC)

All Transfers and Mastering By Charlie Miller
[email protected]
December 18, 2017

Notes:
-- Two sets of masters were used to make this show complete

Set 1:
01 - Tuning
02 - Cold Rain And Snow >
03 - New Minglewood Blues
04 - Dupree's Diamond Blues
05 - Far From Me
06 - Me And My Uncle >
07 - Mexicali Blues
08 - When Push Comes To Shove
09 - Beat It On Down The Line
10 - Bird Song >
11 - The Music Never Stopped

Set 2:
12 - Scarlet Begonias >
13 - Fire On The Mountain >
14 - Looks Like Rain >
15 - Eyes Of The World >
16 - Drums >
17 - Space >
18 - Gimme Some Lovin' >
19 - The Wheel >
20 - Black Peter >
21 - Around And Around >
22 - Good Lovin'

Encore:
23 - Encore Break
24 - Black Muddy River


SHNTOOL OUTPUT:
    length     expanded size    cdr  WAVE problems  fmt   ratio  filename
     1:28.470      50959028 B   cxx   --   ---xx   flac  0.6783  01 Tuning.flac
     6:25.809     222226040 B   cxx   --   ---xx   flac  0.7071  02 Cold Rain And Snow.flac
     8:52.288     306598124 B   cxx   --   ---xx   flac  0.7014  03 New Minglewood Blues.flac
     7:23.958     255719708 B   cxx   --   ---xx   flac  0.7013  04 Dupree's Diamond Blues.flac
     5:34.503     192673784 B   cxx   --   ---xx   flac  0.7036  05 Far From Me.flac
     2:57.719     102366086 B   cxx   --   ---xx   flac  0.7119  06 Me And My Uncle.flac
     5:23.202     186164216 B   cxx   --   ---xx   flac  0.7034  07 Mexicali Blues.flac
     5:54.885     204414032 B   cxx   --   ---xx   flac  0.6928  08 When Push Comes To Shove.flac
     3:09.213     108987002 B   cxx   --   ---xx   flac  0.7060  09 Beat It On Down The Line.flac
     9:54.510     342437534 B   cxx   --   ---xx   flac  0.6879  10 Bird Song.flac
     6:44.161     232796744 B   cxx   --   ---xx   flac  0.6949  11 The Music Never Stopped.flac
     8:01.015     277064756 B   cxx   --   ---xx   flac  0.6866  12 Scarlet Begonias.flac
     9:42.010     335238032 B   cxx   --   ---xx   flac  0.6922  13 Fire On The Mountain.flac
     7:53.879     272954516 B   cxx   --   ---xx   flac  0.6965  14 Looks Like Rain.flac
     6:57.217     240317138 B   cxx   --   ---xx   flac  0.6952  15 Eyes Of The World.flac
    10:10.197     351473630 B   cxx   --   ---xx   flac  0.6696  16 Drums.flac
     6:07.468     211661750 B   cxx   --   ---xx   flac  0.6830  17 Space.flac
     4:31.608     156446156 B   cxx   --   ---xx   flac  0.6983  18 Gimme Some Lovin'.flac
     4:05.779     141568658 B   cxx   --   ---xx   flac  0.6984  19 The Wheel.flac
     9:23.178     324390356 B   cxx   --   ---xx   flac  0.6929  20 Black Peter.flac
     3:35.061     123875402 B   cxx   --   ---xx   flac  0.7075  21 Around And Around.flac
     8:03.782     278658506 B   cxx   --   ---xx   flac  0.7039  22 Good Lovin'.flac
     0:54.712      31514240 B   cxx   --   ---xx   flac  0.6791  23 Encore Break.flac
     7:02.061     243107432 B   cxx   --   ---xx   flac  0.6877  24 Black Muddy River.flac
   150:16.687    5193612870 B                            0.6943  (24 files)


Show Checksums
ffp
01 Tuning.flac:b2948945c0a5bc5f52f71748fc0208f4
02 Cold Rain And Snow.flac:b059263a3b1ff1beff8a47fc24bd7b6c
03 New Minglewood Blues.flac:9bf7b8b655264e32c360fc18d061da66
04 Dupree's Diamond Blues.flac:cfb4159e06647a911294b9be4bfb3eb6
05 Far From Me.flac:3393cebb5847253424479f4cba23148f
06 Me And My Uncle.flac:293764bf0a78a30dca34b0e6e70d4356
07 Mexicali Blues.flac:4bbe93c2f81a2234d1e465e427adc896
08 When Push Comes To Shove.flac:0d6371a7ba23c15eb1b5e7f373d84496
09 Beat It On Down The Line.flac:21547970f9715fd029c45497c5e1c605
10 Bird Song.flac:4419ff371dc7ebe017ae7a725f2f9d87
11 The Music Never Stopped.flac:091f9e101e820fe10e0cd4e5c640e1b0
12 Scarlet Begonias.flac:deadc5b830bca0ba08f794a913779892
13 Fire On The Mountain.flac:f5dfb7e1dd3c9fd4dd5dcf13ff981841
14 Looks Like Rain.flac:3fd6018f09701c69a3c6aac7d647231d
15 Eyes Of The World.flac:286dcb297a30e31e40cc8a42f63857b0
16 Drums.flac:5bf01280486705dc3486d15b811f4389
17 Space.flac:f3635b4fe2215bab270406091ba6e31c
18 Gimme Some Lovin'.flac:c84e2b5f0441cc5cf069ff5d51137f08
19 The Wheel.flac:4068f36d4a08f799b5bfe3b70b0993ca
20 Black Peter.flac:b384dadd0279ae0816fce10b1f1e5a10
21 Around And Around.flac:8bd6b0a246a2de788f028005e031c81e
22 Good Lovin'.flac:777a1061d9eb83e24a663e2f3e7bdafa
23 Encore Break.flac:f558d8eba1125051d5f1c5f512e9c35a
24 Black Muddy River.flac:21174a9f571fcb2a95eba0b5b5ff415d
flac-md5
e5a04d99fc544e62a1e3f6907bccd9e4 *01 Tuning.flac
6a8c2953bef4dc90d0ecaa8eab098477 *02 Cold Rain And Snow.flac
d618e6ce2ba139bf97f2d0ce2ec498e3 *03 New Minglewood Blues.flac
1d9859a2931e9d65de37987cd248be7e *04 Dupree's Diamond Blues.flac
f9c7c96f48a60c7dadd1b46ff4fa8588 *05 Far From Me.flac
98b7f41cbc6d9a733555444a77e373d3 *06 Me And My Uncle.flac
1ba4a70da6b889ed881970b8abde4cba *07 Mexicali Blues.flac
573d2bb47598d5d1b4d7151a77c9500c *08 When Push Comes To Shove.flac
c0c6220b89f5b3a0392fe759fecb36e8 *09 Beat It On Down The Line.flac
cbfb6c4047e4c153aa9aedcfb73ddd19 *10 Bird Song.flac
dfd1857bdcd8713435fcd1b4cc10489a *11 The Music Never Stopped.flac
a893b33042078ce7377c45426e5dca37 *12 Scarlet Begonias.flac
5a828606a210259712c584fc4a08e274 *13 Fire On The Mountain.flac
4626257b4541201100d70fb002956327 *14 Looks Like Rain.flac
fcb41b22fcbb480d89ba512ce89266df *15 Eyes Of The World.flac
ca54cd1067e2ac2fdf044a17f6b08353 *16 Drums.flac
40901aa7ed9fc9f327f42a113fca8f9b *17 Space.flac
ce0c9a89fd4231df1579453643add1be *18 Gimme Some Lovin'.flac
7c0ab8ee9d6647f986b6b9b80905ecab *19 The Wheel.flac
8c64fb4e5c254267927f63326416f9cc *20 Black Peter.flac
3769e034328c134c7629f63373d240fe *21 Around And Around.flac
4c519516de93c41b28792a5000635df0 *22 Good Lovin'.flac
d17a6f483e544e54921041a29596d2d2 *23 Encore Break.flac
e059b3d57355350f954ab411cf288e16 *24 Black Muddy River.flac

Comments
Add Comment
Other Sources (comments)
AUD>PCM>DAT>CDR; via... (0) flac16; Recording... (0) flac16; nak 300 mics... (0) flac16; Recording... (0) flac16; Nakamichi... (0) flac24; Master... (0) flac16; Master... (0) flac16; Recording... (0) flac24; source: nak... (1) flac16; source: nak... (2) flac16; Recording... (0) flac24; Recording... (0) flac16; Set 2 Source... (0)
Date User Comment