Browse Collections Artists Sources   Search Dates

Add Show    List Management    Help


Grateful Dead 04/03/87
The Centrum, Worcester, MA
Comments Add Comment    Source Collectors    Add to Collection    Add to Want List    History
Source # 140292 Other Sources
Entered by Matt Vernon
Checksums flac-md5 , ffp
Disc Counts 0 / 0
Media Size
Date Circulated
Date Added
12/19/2017
12/19/2017
Source Summary flac24; Recording Info: UltraMatrix SBD > Cassette Master (TDK MA-R90); Transfer Info: Cassette Master (Nakamichi CR-7A) > Tascam DA-3000 (DSF 1-bit/5.8 MHz) > KORG AudioGate 4 > Samplitude Pro X3 Suite > FLAC/24; All Transfers and Mastering By Charlie Miller 
  Archive
Source Information - Download Text | Download Zip
Grateful Dead - April 3, 1987
The Centrum - Worcester, MA

Recording Info:
UltraMatrix SBD > Cassette Master (TDK MA-R90)

Transfer Info:
Cassette Master (Nakamichi CR-7A) > Tascam DA-3000 (DSF 1-bit/5.8 MHz) >
KORG AudioGate 4 > Samplitude Pro X3 Suite > FLAC/24
(1 Disc FLAC)

All Transfers and Mastering By Charlie Miller
[email protected]
December 19, 2017

Notes:
-- Two sets of masters were used to make this show complete

Set 1:
01 - Tuning
02 - Hell In A Bucket >
03 - Sugaree
04 - C C Rider
05 - It Must Have Been The Roses
06 - It's All Over Now
07 - Big Railroad Blues
08 - Let It Grow >
09 - Don't Ease Me In

Set 2:
10 - Tuning
11 - China Cat Sunflower >
12 - I Know You Rider
13 - Man Smart (Woman Smarter) >
14 - Crazy Fingers >
15 - Samson And Delilah >
16 - Drums >
17 - Space >
18 - The Other One >
19 - Wharf Rat >
20 - Throwing Stones >
21 - Not Fade Away

Encore:
22 - Encore Break
23 - U.S. Blues


SHNTOOL OUTPUT:
    length     expanded size    cdr  WAVE problems  fmt   ratio  filename
     2:31.287      87141110 B   cxx   --   ---xx   flac  0.6873  01 Tuning.flac
     5:48.744     200876822 B   cxx   --   ---xx   flac  0.7058  02 Hell In A Bucket.flac
     9:33.930     330583820 B   cxx   --   ---xx   flac  0.6819  03 Sugaree.flac
     8:51.114     305921606 B   cxx   --   ---xx   flac  0.6860  04 CC Rider.flac
     8:16.671     286082312 B   cxx   --   ---xx   flac  0.6904  05 It Must Have Been The Roses.flac
     7:45.272     267996944 B   cxx   --   ---xx   flac  0.6936  06 It's All Over Now.flac
     5:35.985     193527452 B   cxx   --   ---xx   flac  0.6949  07 Big Railroad Blues.flac
    11:56.255     412563206 B   cxx   --   ---xx   flac  0.6864  08 Let It Grow.flac
     3:43.731     128869034 B   cxx   --   ---xx   flac  0.6919  09 Don't Ease Me In.flac
     0:35.798      20619860 B   cxx   --   ---xx   flac  0.6618  10 Tuning.flac
     5:05.938     176220494 B   cxx   --   ---xx   flac  0.6892  11 China Cat Sunflower.flac
     5:42.248     197135138 B   cxx   --   ---xx   flac  0.6886  12 I Know You Rider.flac
     6:30.455     224902202 B   cxx   --   ---xx   flac  0.6820  13 Man Smart (Woman Smarter).flac
     8:51.087     305906156 B   cxx   --   ---xx   flac  0.6859  14 Crazy Fingers.flac
     6:35.792     227976200 B   cxx   --   ---xx   flac  0.6881  15 Samson And Delilah.flac
     4:38.247     160270412 B   cxx   --   ---xx   flac  0.6689  16 Drums.flac
     4:09.956     143974580 B   cxx   --   ---xx   flac  0.6646  17 Space.flac
     6:34.618     227300186 B   cxx   --   ---xx   flac  0.6786  18 The Other One.flac
     8:12.855     283884482 B   cxx   --   ---xx   flac  0.6811  19 Wharf Rat.flac
     8:07.551     280829576 B   cxx   --   ---xx   flac  0.6827  20 Throwing Stones.flac
     4:46.253     164881994 B   cxx   --   ---xx   flac  0.6805  21 Not Fade Away.flac
     1:50.438      63612200 B   cxx   --   ---xx   flac  0.6732  22 Encore Break.flac
     8:58.001     309888434 B   cxx   --   ---xx   flac  0.6802  23 US Blues.flac
   144:42.228    5000964220 B                            0.6851  (23 files)


Show Checksums
flac-md5
57887d69178230e163b318aa08fe710e *01 Tuning.flac
a0c641840367eff1416154d5c08de89b *02 Hell In A Bucket.flac
2fee2411912b446e01eb8dd76b78c317 *03 Sugaree.flac
7fbe88dca6b9d464034e757d419d282b *04 CC Rider.flac
c3f6a25488ed2d29f338e6ce6d008496 *05 It Must Have Been The Roses.flac
914c2a8995e40cf04ca7fc6f84f8b2a5 *06 It's All Over Now.flac
f56216b2bc98406d5c35388637194f49 *07 Big Railroad Blues.flac
e5eaef00ef1d7490c46590961a1548d8 *08 Let It Grow.flac
7d817f845c81d10baa0494f7c719fe4a *09 Don't Ease Me In.flac
12e7c79851726f2c4f8d5e8975f7d758 *10 Tuning.flac
4a4e22228a20c4b4d09f31873b5f2eb0 *11 China Cat Sunflower.flac
c213fc6f021691d1a9c8d72400c66deb *12 I Know You Rider.flac
dde0f370a87e833e0c1b5e176d869fcf *13 Man Smart (Woman Smarter).flac
3421111ea3d452ac2e8367582006bb70 *14 Crazy Fingers.flac
f0aeb0362ad556d22894cfa2cb1ae083 *15 Samson And Delilah.flac
e8fb79f3d88785386fc5b172dea1a39e *16 Drums.flac
2533190d540fc4228914be11c0bbeb51 *17 Space.flac
a1dbb436647ada9dc730076cc79ef9a0 *18 The Other One.flac
8302022338a7c8c92950523bfc67f98c *19 Wharf Rat.flac
6e1905c32620721279ecfef2fa630151 *20 Throwing Stones.flac
79002dab3fb50deed2e7c75c3d14392c *21 Not Fade Away.flac
760fd44a5ab985d8d73196e667939b72 *22 Encore Break.flac
404a6bcdbd89e16ab5e277c0433bb5a7 *23 US Blues.flac
ffp
01 Tuning.flac:4edea5b43b72a5e7bbee3a0f0b183bc1
02 Hell In A Bucket.flac:932ed0684072fc2f870d4f009903a577
03 Sugaree.flac:1ca1277b84b64aac595f75d560882caa
04 CC Rider.flac:e5b4c6d29b5b953b4af71e169419481d
05 It Must Have Been The Roses.flac:2a30624088dd7c1099a991da6b42b34c
06 It's All Over Now.flac:74ef2dc68e087a0e38c6d2b50ecb3a45
07 Big Railroad Blues.flac:9306abeb7ac6cfbcdeb77111a30fda82
08 Let It Grow.flac:65804fd628e3078119d99a582c6ec0fd
09 Don't Ease Me In.flac:94acd7e3e5c928ae7185d49325a493e1
10 Tuning.flac:2318eb1339ed3481988d7a2393ab6c2f
11 China Cat Sunflower.flac:cde43e8184b2afdec5f966b28d6d6b26
12 I Know You Rider.flac:d9dfaabfac1619b85957d98348f26b62
13 Man Smart (Woman Smarter).flac:4f3339c24a4252b04fb3e960e7f18b96
14 Crazy Fingers.flac:c00c72905e4a1f8596b399e26933c859
15 Samson And Delilah.flac:6e3463bf323bcd960667f28262d9ff29
16 Drums.flac:13fc35f4b8c4793c73fc2b1184df1624
17 Space.flac:3c5ef9035cb90c14ce85c2c19be05b25
18 The Other One.flac:c7f21627eb298e2109fc33356b2254fb
19 Wharf Rat.flac:b99db0bc96a940d3c4fe5d4a4cdd2ab1
20 Throwing Stones.flac:98aeb925d4b6fff01330c82b9be23373
21 Not Fade Away.flac:f64c34cbf35811220ef3ccaf885650bb
22 Encore Break.flac:fde9ce8aae95d8122a4514a3c25b1195
23 US Blues.flac:bcc059c9f040f5530bdf98da61cc1f1d

Comments
Add Comment
Other Sources (comments)
2nd set only;... (0) Recording Info: Sennheiser... (0) flac16; taper : Joe... (0) flac16; Recording... (0) flac16; Recording... (0) flac16; Master... (0) flac24; Master... (0) flac24; Set 2... (2) flac16; Recording... (0) flac16; Recording... (0) flac24; Recording... (0) flac16; Set 2 Source... (0)
Date User Comment