Browse Collections Artists Sources   Search Dates

Add Show    List Management    Help


Grateful Dead 03/21/94
Richfield Coliseum, Richfield, OH
Comments Add Comment    Source Collectors    Add to Collection    Add to Want List    History
Source # 140296 Other Sources
Entered by Matt Vernon
Checksums flac-md5 , ffp
Disc Counts 0 / 0
Media Size
Date Circulated
Date Added
12/19/2017
12/19/2017
Source Summary flac16; Set 2 Recording Info: Master Soundboard Dat > Dat; Transfer Info: Dat (Sony PCM-R500)> Tascam DA-3000 > Adobe Audition 3.0> TLH flac16; Mastered by Scott Clugston 
  Archive
Source Information - Download Text | Download Zip
Grateful Dead
Richfield Coliseum
Richfield, OH
Monday March 21, 1994

Recording Info:
Master Soundboard Dat > Dat

Transfer Info:
Dat (Sony PCM-R500)> Tascam DA-3000 > Adobe Audition 3.0> TLH flac16

Notes:
- Thanks to Jim Wise for the Dat source and the transfer
- Thanks to Charlie Miller for coordinating this effort
- The 2nd set of the soundboard in general circulation (shnid6258) has a cassette generation
- Thanks to the folks responsible for the shnid110568 B&K 4011 source which supplies the "Encore Break" as well as the "Liberty" encore
- "He's Gone" (including Jam) clocks in at 23:50

Mastered by Scott Clugston
12/19/17

Set 2:
t01 - Tuning
t02 - Picasso Moon ->
t03 - New Speedway Boogie
t04 - Victim Or The Crime ->
t05 - He's Gone ->
      Jam ->
t06 - Drums ->
t07 - Space ->
t08 - Turn On Your Lovelight ->
t09 - Stella Blue ->
t10 - Turn On Tour Lovelight
t11 - Encore Break
t12 - Liberty



    length     expanded size    cdr  WAVE problems  fmt   ratio  filename
     0:59.39       10499372 B   ---   --   ---xx   flac  0.3666  gd94-03-21 01 Tuning.flac
     7:06.41       75242876 B   ---   --   ---xx   flac  0.5899  gd94-03-21 02 Picasso Moon.flac
     7:53.07       83453708 B   ---   --   ---xx   flac  0.5458  gd94-03-21 03 New Speedway Boogie.flac
     9:23.27       99376748 B   ---   --   ---xx   flac  0.5753  gd94-03-21 04 Victim Or The Crime.flac
    23:50.08      252270860 B   ---   --   ---xx   flac  0.5299  gd94-03-21 05 He's Gone.flac
    12:32.03      132659900 B   ---   --   ---xx   flac  0.5054  gd94-03-21 06 Drums.flac
    12:12.65      129277724 B   ---   --   ---xx   flac  0.4159  gd94-03-21 07 Space.flac
     5:27.68       57842780 B   ---   --   ---xx   flac  0.5365  gd94-03-21 08 Turn On Your Lovelight.flac
     8:03.38       85290620 B   ---   --   ---xx   flac  0.5316  gd94-03-21 09 Stella Blue.flac
     2:55.61       31013516 B   ---   --   ---xx   flac  0.5971  gd94-03-21 10 Turn On Your Lovelight.flac
     0:37.63        6675020 B   ---   --   ---xx   flac  0.5319  gd94-03-21 11 Encore Break.flac
     8:10.33       86513660 B   ---   --   ---xx   flac  0.5842  gd94-03-21 12 Liberty.flac
    99:13.03     1050116784 B                            0.5280  (12 files)

No errors occured.


Show Checksums
flac-md5
76f480823d69a7b4d6f19c14c07e3848 *gd94-03-21 01 Tuning.flac
c0ea7dcefc92e35730be72c51f3c50e2 *gd94-03-21 02 Picasso Moon.flac
71c77aa3cbd7021dc8855b4f86736f2c *gd94-03-21 03 New Speedway Boogie.flac
72396f2932cae2effcfc635db12b2c39 *gd94-03-21 04 Victim Or The Crime.flac
1d0e90433b313c7837f208ebb55fde5c *gd94-03-21 05 He's Gone.flac
a017125a9e4ba842bc849855fd44b1db *gd94-03-21 06 Drums.flac
9e847c8bdd47ae7cb185905b68e19ac9 *gd94-03-21 07 Space.flac
9d39fc29ba1bee1d22275f553ac95986 *gd94-03-21 08 Turn On Your Lovelight.flac
ae53668587b27ff2c7a02d32f38937d0 *gd94-03-21 09 Stella Blue.flac
3294ec2b7296e07288ebb4efd169c09f *gd94-03-21 10 Turn On Your Lovelight.flac
05a1dc4428826de5d9c4d2ec3132cb00 *gd94-03-21 11 Encore Break.flac
1d1705d935616d2c8c8ff3dcddadce27 *gd94-03-21 12 Liberty.flac
ffp
gd94-03-21 01 Tuning.flac:71971553f5e58058f86089d9c1cd1ff6
gd94-03-21 02 Picasso Moon.flac:76678a35a9d6dbc58964bd12973310e4
gd94-03-21 03 New Speedway Boogie.flac:bc7213ea46b5024c633e9d20116b13b9
gd94-03-21 04 Victim Or The Crime.flac:be2dbbcc860c00b245b718ad2e348e78
gd94-03-21 05 He's Gone.flac:4d189addb5df6d1e19aae26fe4165cf5
gd94-03-21 06 Drums.flac:5bfe17d191752ee7b9f19b192a2ee216
gd94-03-21 07 Space.flac:f53d148f794924dd79d1576adbbab1fb
gd94-03-21 08 Turn On Your Lovelight.flac:aab0a347c83c08f08ed19a5514ed91a0
gd94-03-21 09 Stella Blue.flac:d97b518c246f67b453f727bd36681c4e
gd94-03-21 10 Turn On Your Lovelight.flac:6e5fc5294974b3bfe0943b6a761b412a
gd94-03-21 11 Encore Break.flac:e790994db767c87352df4bbda9802d46
gd94-03-21 12 Liberty.flac:edb16b1fdae5fe9c579ce7022cde0784

Comments
Add Comment
Other Sources (comments)
SBD > DAT > CDR > SHNv3;... (1) flac16; Source:... (0) flac16; Matrix of... (0) flac16; Sony WM-D6C... (0)
Date User Comment