Browse Collections Artists Sources   Search Dates

Add Show    List Management    Help


Grateful Dead 10/29/80
Radio City Music Hall, New York, NY
Comments Add Comment    Source Collectors    Add to Collection    Add to Want List    History
Source # 140301 Other Sources
Entered by Matt Vernon
Checksums flac-md5 , ffp
Disc Counts 0 / 0
Media Size
Date Circulated
Date Added
10/20/2017
12/20/2017
Source Summary flac16; Partial Sets 2 & 3 Recording Info: SBD > Cassette Master > Cassette; Transfer Info: Cassette (Sony TC-WE475) > Sony R500 (Pass Through) > SEK'D Prodif Plus > Samplitude Professional v8.01 > Flac; Transferred and Edited By Charlie Miller; This is a pitch corrected version of source ID 32538; edited by SIRMick 
  Archive
Source Information - Download Text | Download Zip
Grateful Dead
Radio City Music Hall
New York, NY
10/29/1980

Partial SBD

Recording Info: SBD > Cassette Master > Cassette

Transfer Info: Cassette (Sony TC-WE475) > Sony R500 (Pass Through) > SEK'D Prodif Plus > Samplitude Professional v8.01 > Flac


Transferred and Edited By Charlie Miller
[email protected]
December 24, 2005



Set II

01   Feel Like A Stranger ->
02   Franklin's Tower
03   Me And My Uncle ->
04   Big River
05   Candyman ->
06   Little Red Rooster


Set III

01   Space ->
02   The Wheel ->
03   Saint Of Circumstance ->
04   Black Peter ->
05   Sugar Magnolia


Notes:

- This is a pitch corrected version of shnid 32538


Original notes:

Notes:

- Thanks to Paul Scotton and Joani walker for the cassette.
- Small patch in Rooster with Jim Wise's Sony ECM280 Cass Master


edited by
SIRMick
December 2017


shntool output:

    length     expanded size    cdr  WAVE problems  fmt   ratio  filename
     7:22.28       78034700 B   ---   --   ---xx   flac  0.5629  gd1980-10-29s1t01.flac
    10:17.37      108925868 B   ---   --   ---xx   flac  0.5533  gd1980-10-29s1t02.flac
     3:05.46       32742236 B   ---   --   ---xx   flac  0.5580  gd1980-10-29s1t03.flac
     6:13.17       65837228 B   ---   --   ---xx   flac  0.5528  gd1980-10-29s1t04.flac
     7:19.25       77498444 B   ---   --   ---xx   flac  0.5108  gd1980-10-29s1t05.flac
    10:25.69      110412332 B   ---   --   ---xx   flac  0.5479  gd1980-10-29s1t06.flac
     5:14.32       55464908 B   ---   --   ---xx   flac  0.4944  gd1980-10-29s2t01.flac
     6:13.50       65914844 B   ---   --   ---xx   flac  0.5172  gd1980-10-29s2t02.flac
     6:21.15       67243724 B   ---   --   ---xx   flac  0.5430  gd1980-10-29s2t03.flac
     9:25.42       99764828 B   ---   --   ---xx   flac  0.5127  gd1980-10-29s2t04.flac
     8:57.74       94900892 B   ---   --   ---xx   flac  0.5467  gd1980-10-29s2t05.flac
    80:56.60      856740004 B                            0.5369  (11 files)



Show Checksums
flac-md5
085451b8f6273a1b8aada81fb20cf877 *gd1980-10-29s1t01.flac
08f8196ebabb92ebd62c03854fe8006a *gd1980-10-29s1t02.flac
b6324d5c0ddf7552292830661f1e536b *gd1980-10-29s1t03.flac
50fcf6da026a647e81d90f6f956a3725 *gd1980-10-29s1t04.flac
706fbfe5f90cabe956717b7140dea7fe *gd1980-10-29s1t05.flac
0420f14057b164031d3b43defe5ec603 *gd1980-10-29s1t06.flac
0f3b0f2ee3999eb0a26adb1f47081fd2 *gd1980-10-29s2t01.flac
8f2e85855ead59b31898326b96ee90d3 *gd1980-10-29s2t02.flac
45dc8f358de8456a208ca5388d751117 *gd1980-10-29s2t03.flac
c88bbbd3ac71acc3ebd06c35f9fa5349 *gd1980-10-29s2t04.flac
7ea4e682da1f7148226403314d13693e *gd1980-10-29s2t05.flac
ffp
gd1980-10-29s1t01.flac:2309adfadabed265edec356c8d211a4a
gd1980-10-29s1t02.flac:424bacf74cbc8adc3742352e710ade4c
gd1980-10-29s1t03.flac:d3f1c72464262e5fa4aac1471ba5ddb4
gd1980-10-29s1t04.flac:d8eedc341f1fe22474e435e1c3c19723
gd1980-10-29s1t05.flac:a8a7e80ea14bde7d8744c8787a4a14d0
gd1980-10-29s1t06.flac:a2b0162e6da758489a87a3c577c86c2a
gd1980-10-29s2t01.flac:869c1a9d83a2fca44da8ed05451ae56c
gd1980-10-29s2t02.flac:d95b5b05076dab3f6ed31b96ee24d02c
gd1980-10-29s2t03.flac:3dbd10b9103d8ecfcd4c0b7b61a06b0a
gd1980-10-29s2t04.flac:9fa36a5ba41ece035f4a2cba2da95f33
gd1980-10-29s2t05.flac:007a1bc6e8d35e5ceb60bfd6aeeca621

Comments
Add Comment
Other Sources (comments)
Recording by Jim Wise:... (2) flac16; **Partial... (0) flac16; Seamless... (1) flac16; Recording... (0) flac16; Loge Dead... (1) flac16; Partial... (0) flac16; AUD: 2x... (0) flac24; partial set... (0) flac16; partial set... (0) flac16; SBD DAT->... (0)
Date User Comment