Browse Collections Artists Sources   Search Dates

Add Show    List Management    Help


Grateful Dead 04/04/87
The Centrum, Worcester, MA
Comments Add Comment    Source Collectors    Add to Collection    Add to Want List    History
Source # 140305 Other Sources
Entered by Matt Vernon
Checksums ffp , flac-md5
Disc Counts 0 / 0
Media Size
Date Circulated
Date Added
12/20/2017
12/20/2017
Source Summary flac24; Recording Info: FM (WCUW) > Cassette Master (TDK SA-X90); Transfer Info: Cassette Master (Nakamichi CR-7A) > Tascam DA-3000 (DSF 1-bit/5.8 MHz) > KORG AudioGate 4 > Samplitude Pro X3 Suite > FLAC/24; All Transfers and Mastering By Charlie Miller 
  Archive
Source Information - Download Text | Download Zip
Grateful Dead - April 4, 1987
The Centrum - Worcester, MA

Recording Info:
FM (WCUW) > Cassette Master (TDK SA-X90)

Transfer Info:
Cassette Master (Nakamichi CR-7A) > Tascam DA-3000 (DSF 1-bit/5.8 MHz) >
KORG AudioGate 4 > Samplitude Pro X3 Suite > FLAC/24
(1 Disc FLAC)

All Transfers and Mastering By Charlie Miller
[email protected]
December 20, 2017

Notes:
-- Recorded by The Grateful Dead crew
-- Two sets of masters were used to make this show complete

Set 1:
01 - Tuning
02 - Touch Of Grey >
03 - Greatest Story Ever Told
04 - Althea
05 - El Paso
06 - Tennessee Jed
07 - Cassidy
08 - Never Trust A Woman
09 - Box Of Rain
10 - The Promised Land

Set Break
11 - Set Break
12 - Radio Announcements

Set 2:
13 - Iko Iko
14 - Playing In The Band >
15 - Comes A Time >
16 - Willie And The Hand Jive >
17 - Drums >
18 - Space >
19 - Truckin' >
20 - Playing In The Band >
21 - Morning Dew

Encore:
22 - Encore Break
23 - One More Saturday Night
24 - Radio Announcements


SHNTOOL OUTPUT:
   length     expanded size    cdr  WAVE problems  fmt   ratio  filename
    2:11.609      75806858 B   cxx   --   ---xx   flac  0.7120  01 Tuning.flac
    6:02.344     208710188 B   cxx   --   ---xx   flac  0.7340  02 Touch Of Grey.flac
    4:22.293     151080878 B   cxx   --   ---xx   flac  0.7301  03 Greatest Story Ever Told.flac
    7:42.631     266475362 B   cxx   --   ---xx   flac  0.7286  04 Althea.flac
    7:01.780     242945114 B   cxx   --   ---xx   flac  0.7213  05 El Paso.flac
    9:56.397     343524980 B   cxx   --   ---xx   flac  0.7202  06 Tennessee Jed.flac
    6:19.265     218456726 B   cxx   --   ---xx   flac  0.7285  07 Cassidy.flac
    7:49.421     270386828 B   cxx   --   ---xx   flac  0.7270  08 Never Trust A Woman.flac
    4:49.447     166721486 B   cxx   --   ---xx   flac  0.7301  09 Box Of Rain.flac
    4:28.296     154538738 B   cxx   --   ---xx   flac  0.7338  10 Promised Land.flac
    1:17.101      44410154 B   cxx   --   ---xx   flac  0.7044  11 Set Break.flac
   27:05.553     936318854 B   cxx   --   ---xx   flac  0.7068  12 Radio Announcements.flac
    6:32.606     226140890 B   cxx   --   ---xx   flac  0.7347  13 Iko Iko.flac
   10:13.306     353264546 B   cxx   --   ---xx   flac  0.7304  14 Playing In The Band.flac
    8:00.610     276831134 B   cxx   --   ---xx   flac  0.7283  15 Comes A Time.flac
    6:08.308     212145416 B   cxx   --   ---xx   flac  0.7344  16 Hand Jive.flac
    7:57.013     274759430 B   cxx   --   ---xx   flac  0.7134  17 Drums.flac
    6:41.264     231128054 B   cxx   --   ---xx   flac  0.7101  18 Space.flac
    7:38.509     264100946 B   cxx   --   ---xx   flac  0.7360  19 Truckin.flac
    3:15.462     112586402 B   cxx   --   ---xx   flac  0.7299  20 Playing In The Band.flac
    9:06.184     314601830 B   cxx   --   ---xx   flac  0.7278  21 Morning Dew.flac
    1:54.648      66037418 B   cxx   --   ---xx   flac  0.7236  22 Encore Break.flac
    5:00.735     173223152 B   cxx   --   ---xx   flac  0.7388  23 One More Saturday Night.flac
    1:28.542      51000488 B   cxx   --   ---xx   flac  0.7128  24 Radio Announcements.flac
  163:03.324    5635195872 B                            0.7236  (24 files)


Show Checksums
ffp
01 Tuning.flac:d0b52834aff2a761c2191b3743db584b
02 Touch Of Grey.flac:9c16378fe81b6c406c223b551eabb26c
03 Greatest Story Ever Told.flac:96bcf8bc9782a04d513d6119550e52c2
04 Althea.flac:06ff448e41aa6fe0072034aca8db70ea
05 El Paso.flac:5ec3de6f2187517877df868df6a78ac3
06 Tennessee Jed.flac:ce5fe4349c05ab280654d70072c62666
07 Cassidy.flac:81811a3b95f714d90d254223a9097655
08 Never Trust A Woman.flac:6388044b9d0645e3e96e44db75433522
09 Box Of Rain.flac:f88cf4fd9d712338c12e94697b1eeece
10 Promised Land.flac:180a38322f6af3cda333e650153a03ef
11 Set Break.flac:6e39386b0d778e244720f03440368810
12 Radio Announcements.flac:1f17b13421e1d9cbe1a6073d778efb98
13 Iko Iko.flac:8c074cf13050d74d27fedad8cc473295
14 Playing In The Band.flac:43fc0f3e740311ab9cb59262ede94725
15 Comes A Time.flac:e1ccf54c55ba9d8ebbf7cca9b9e2ba59
16 Hand Jive.flac:0dfc6a34d512de748e2a8fd2861fce56
17 Drums.flac:1e184b68729dfb5184a2c093f28066ab
18 Space.flac:d00a8033b36d822edf770b9c47cba830
19 Truckin.flac:07b24f4d01ae5080481332d08a4b7d9a
20 Playing In The Band.flac:bd305bde04ad18bf2d3350f9cce08a08
21 Morning Dew.flac:0e6f9a88640db233542939d9fdedd48d
22 Encore Break.flac:ff4d22c407d923ca88b383d375cf818b
23 One More Saturday Night.flac:5c5522352c4c6554fc03a54846a782ff
24 Radio Announcements.flac:73a7a34a8687583136c0c8868c8dbbc6
flac-md5
5e5a30f843af9684f71b4385122dbd08 *01 Tuning.flac
cac3a87abd7cf5c82bf70e3935905881 *02 Touch Of Grey.flac
124be9cceed8d16679aa345b034ac1e2 *03 Greatest Story Ever Told.flac
2eeb31a8eb975bc545e536579b539586 *04 Althea.flac
32e6de533898c7347432a36fcd15fcaf *05 El Paso.flac
2e52734101529747083286d2721431ed *06 Tennessee Jed.flac
425c2bde31aed941d924e9580c5a575b *07 Cassidy.flac
8bcf45c456fe8bde0d175cdbb6af8f1f *08 Never Trust A Woman.flac
a287772cece46c621fe9b0cef034cf71 *09 Box Of Rain.flac
e14d7d78b09a13894a72f87215414406 *10 Promised Land.flac
506e888476a5851c59882833f43bb64e *11 Set Break.flac
9956c5d260222e312f51d4b9ab1be084 *12 Radio Announcements.flac
90a0ea7bc4edb55cb37550e9860a9a79 *13 Iko Iko.flac
e2fd6c4ff893cb9807b65284ed13f46d *14 Playing In The Band.flac
adfa2a300e3085c636c3e5f754fd6fff *15 Comes A Time.flac
04091bf6368e313052fb75e901094709 *16 Hand Jive.flac
d399fafe3a166ea62cb44a12a768e2bd *17 Drums.flac
6c6c2d848b6ca71c418a93f5a0e71eed *18 Space.flac
db7636cc66e73b66b57f6988a9fb0630 *19 Truckin.flac
87d88c67fe4da0d4d683d495fe4d4be9 *20 Playing In The Band.flac
6b45741bf3d7f29ceb9686190c6b6d7a *21 Morning Dew.flac
88a432fff1d196b56512ca2814ca5da2 *22 Encore Break.flac
0f2e15d7b37040d724a30f721c323cf4 *23 One More Saturday Night.flac
d3cf485cad3b857135e6b013f52237f8 *24 Radio Announcements.flac

Comments
Add Comment
Other Sources (comments)
FOB Schoeps > PCM > DAT >... (1) flac16; Source: AUD,... (0) flac16; taper : Joe... (0) flac16; Recording... (0) flac16; Recording... (0) flac16; FOB>AKG... (0) flac16; Master... (0) flac24; Master... (0) flac24; source:... (0) flac24; Recording... (0) flac16; Recording... (0) flac16; Recording... (0)
Date User Comment