Browse Collections Artists Sources   Search Dates

Add Show    List Management    Help


Grateful Dead 04/04/87
The Centrum, Worcester, MA
Comments Add Comment    Source Collectors    Add to Collection    Add to Want List    History
Source # 140306 Other Sources
Entered by Matt Vernon
Checksums ffp , flac-md5
Disc Counts 0 / 0
Media Size
Date Circulated
Date Added
12/20/2017
12/20/2017
Source Summary flac24; Recording Info: UltraMatrix SBD > Cassette Master (TDK MA-R90); Transfer Info: Cassette Master (Nakamichi CR-7A) > Tascam DA-3000 (DSF 1-bit/5.8 MHz) > KORG AudioGate 4 > Samplitude Pro X3 Suite > FLAC/24; All Transfers and Mastering By Charlie Miller 
  Archive
Source Information - Download Text | Download Zip
Grateful Dead - April 4, 1987
The Centrum - Worcester, MA

Recording Info:
UltraMatrix SBD > Cassette Master (TDK MA-R90)

Transfer Info:
Cassette Master (Nakamichi CR-7A) > Tascam DA-3000 (DSF 1-bit/5.8 MHz) >
KORG AudioGate 4 > Samplitude Pro X3 Suite > FLAC/24
(1 Disc FLAC)

All Transfers and Mastering By Charlie Miller
[email protected]
December 20, 2017

Notes:
-- Two sets of masters were used to make this show complete

Set 1:
01 - Tuning
02 - Touch Of Grey >
03 - Greatest Story Ever Told
04 - Althea
05 - El Paso
06 - Tennessee Jed
07 - Cassidy
08 - Never Trust A Woman
09 - Box Of Rain
10 - The Promised Land

Set 2:
11 - Iko Iko
12 - Playing In The Band >
13 - Comes A Time >
14 - Willie And The Hand Jive >
15 - Drums >
16 - Space >
17 - Truckin' >
18 - Playing In The Band >
19 - Morning Dew

Encore:
20 - Encore Break
21 - One More Saturday Night


SHNTOOL OUTPUT:
   length     expanded size    cdr  WAVE problems  fmt   ratio  filename
    2:30.701      86803988 B   cxx   --   ---xx   flac  0.6489  01 Tuning.flac
    6:01.921     208466582 B   cxx   --   ---xx   flac  0.6833  02 Touch Of Grey.flac
    4:22.496     151197938 B   cxx   --   ---xx   flac  0.6754  03 Greatest Story Ever Told.flac
    7:42.794     266569610 B   cxx   --   ---xx   flac  0.6743  04 Althea.flac
    7:01.754     242930174 B   cxx   --   ---xx   flac  0.6799  05 El Paso.flac
    9:56.792     343751954 B   cxx   --   ---xx   flac  0.6769  06 Tennessee Jed.flac
    6:27.312     223091474 B   cxx   --   ---xx   flac  0.6842  07 Cassidy.flac
    7:51.969     271854350 B   cxx   --   ---xx   flac  0.6749  08 Never Trust A Woman.flac
    4:50.748     167470688 B   cxx   --   ---xx   flac  0.6935  09 Box Of Rain.flac
    4:39.798     161163956 B   cxx   --   ---xx   flac  0.6782  10 Promised Land.flac
    6:55.442     239294726 B   cxx   --   ---xx   flac  0.6725  11 Iko Iko.flac
   10:12.847     352999904 B   cxx   --   ---xx   flac  0.6886  12 Playing In The Band.flac
    8:01.067     277094924 B   cxx   --   ---xx   flac  0.6861  13 Comes A Time.flac
    6:07.988     211960988 B   cxx   --   ---xx   flac  0.6867  14 Hand Jive.flac
    7:54.459     273288692 B   cxx   --   ---xx   flac  0.6405  15 Drums.flac
    6:43.454     232389344 B   cxx   --   ---xx   flac  0.6498  16 Space.flac
    7:35.698     262481852 B   cxx   --   ---xx   flac  0.7024  17 Truckin'.flac
    3:15.744     112748510 B   cxx   --   ---xx   flac  0.6842  18 Playing In The Band.flac
    9:04.414     313582466 B   cxx   --   ---xx   flac  0.6805  19 Morning Dew.flac
    1:23.050      47836778 B   cxx   --   ---xx   flac  0.6585  20 Encore Break.flac
    4:59.724     172641332 B   cxx   --   ---xx   flac  0.6759  21 One More Saturday Night.flac
  133:40.172    4619620230 B                            0.6773  (21 files)


Show Checksums
ffp
01 Tuning.flac:ede028509a63a3fc14643306c0755c0c
02 Touch Of Grey.flac:6489121441d6b3601a8bc1810496a453
03 Greatest Story Ever Told.flac:91cd4e17bdb39ff2864c92258c13277c
04 Althea.flac:a2ca8f1bc2b2282753ff886462d85031
05 El Paso.flac:81fbacd64b22711ac876406ebb9ca339
06 Tennessee Jed.flac:8b56eed593fdb13b0bb298ca5fc89527
07 Cassidy.flac:b960d46a85508b649ace981b7856248e
08 Never Trust A Woman.flac:2021744577ea578d3e281733bc2e2c47
09 Box Of Rain.flac:f32a28aefa1fa053c1f3673c9c09c21a
10 Promised Land.flac:cc1f23ff9cfa61f359f7c60b0bc510ff
11 Iko Iko.flac:61396243f6ff387f8b601e5b4c6e8c78
12 Playing In The Band.flac:e44c42f88b6e0babf36b840894619478
13 Comes A Time.flac:9c73a50de779c2bba1b78017f9d84168
14 Hand Jive.flac:ead0ed581b90ca1b94ec1671f7f9f70e
15 Drums.flac:a0b36e6e2cc65ce05ac1a19d6de91d01
16 Space.flac:6d31338cd06ae028f72a5fe30823d768
17 Truckin'.flac:2ad7241c85d070ffac69e1c008df3b3a
18 Playing In The Band.flac:0b26361f9f4046579fb564733092f139
19 Morning Dew.flac:efbe083c85f95ff2f36671608a05d601
20 Encore Break.flac:bfccf0afac721b012e213dbe2b3e6584
21 One More Saturday Night.flac:dc77ae93837fc77802ffd006aaff99b7
flac-md5
d630d4d3ab66bbc05cf516e76c0db395 *01 Tuning.flac
b27aac4f1502373d72a73c5f51268c2e *02 Touch Of Grey.flac
3d9697a4a0a87b27e220d33010add965 *03 Greatest Story Ever Told.flac
e6382d9db3bb7ca69a760ad3a2ca169c *04 Althea.flac
a0e187b6ae0373cdf0b19be85f627130 *05 El Paso.flac
3eb9545a50fa039ebdaa31c2226a3c29 *06 Tennessee Jed.flac
e43d41b6f464c865677ee203008a8396 *07 Cassidy.flac
10d207d00bfddafb7af30b225529a854 *08 Never Trust A Woman.flac
92abd6f75ed3e91820e91fb609e1e1e7 *09 Box Of Rain.flac
120040631585155700035b3c83699956 *10 Promised Land.flac
9841be1eea9a03a461bdd736827b560d *11 Iko Iko.flac
89aa6309122b8e61be48de589ac0703e *12 Playing In The Band.flac
193f8a9ee97b97104b1d0e7fef3cfffa *13 Comes A Time.flac
4f974a3a9adf5d9e7fb22b280f3ee23f *14 Hand Jive.flac
ec70cc59c1b23771d4debff110c5a10b *15 Drums.flac
a6b2aa1ec83336ebac149f7de36ce49c *16 Space.flac
12d045d767765e8db3e5a3984b4488bc *17 Truckin'.flac
b55dff6ea64631eda99b898a47474e11 *18 Playing In The Band.flac
1febfc054e2c7af6ea9bd17fc76ec5a1 *19 Morning Dew.flac
30be09efef434ef70122fe6b1562c3ac *20 Encore Break.flac
0443e6c5df75a03412f03ccd2f1ce2d9 *21 One More Saturday Night.flac

Comments
Add Comment
Other Sources (comments)
FOB Schoeps > PCM > DAT >... (1) flac16; Source: AUD,... (0) flac16; taper : Joe... (0) flac16; Recording... (0) flac16; Recording... (0) flac16; FOB>AKG... (0) flac16; Master... (0) flac24; Master... (0) flac24; source:... (0) flac24; Recording... (0) flac16; Recording... (0) flac16; Recording... (0)
Date User Comment