Browse Collections Artists Sources   Search Dates

Add Show    List Management    Help


Grateful Dead 03/26/83
Aladdin Theater, Las Vegas, NV
Comments Add Comment    Source Collectors    Add to Collection    Add to Want List    History
Source # 140315 Other Sources
Entered by Matt Vernon
Checksums ffp , flac-md5
Disc Counts 0 / 0
Media Size
Date Circulated
Date Added
12/21/2017
12/21/2017
Source Summary flac16/48kHz; Recording Info: Master Soundboard Cassette -> Technics Reel to Reel -> Panasonic SV-3800 Dat 16/48; Transfer Info: Sony PCM-R500 16/48 -> Tascam DA-3000 16/48 > Adobe Audition 3.0 -> TLH flac1648 
  Archive
Source Information - Download Text | Download Zip
Grateful Dead
Aladdin Hotel Theatre
Las Vegas, NV
Saturday March 26, 1983

Recording Info:
Master Soundboard Cassette -> Technics Reel to Reel -> Panasonic SV-3800 Dat 16/48

Transfer Info:
Sony PCM-R500 16/48 -> Tascam DA-3000 16/48 > Adobe Audition 3.0 -> TLH flac1648

Notes:
- Thanks to Rob Eaton for the source Dat
- Thanks to Charlie Miller for the transfer
- 1st soundboard in circulation for this date (Dec 2017)
- Thanks to the folks responsible for the shnid81092 Neumann KM54 source which supplies some crowd and the first beat of "Little Red Rooster" (0:01.24 total), the crowd and the first 0:02.33 of "Brown Eyed Women" (0:17 total), a 0:01.63 patch just as Bob begins to speak before "My Brother Esau" as well as the last 6:27 of "Estimated Prophet"
- The Neumann KM54 patch source was gently equalized to remove some of the "room boom"
- Thanks to the folks responsible for the shnid79606 Sennheiser 421 source that supplies the final 0:02 of "One More Saturday Night" as well as the encore break and the first few beats of "Touch Of Grey"
- Level fluctuations at the beginning of "Jack Straw"
- Between song transitions smoothed
- Noodle into the pre-drums Other One included in the 1st "The Other One"
- Post "Drums" Other One space included in the "The Other One" part deux

Mastered by Scott Clugston
12/21/2017

Set 1:
01 - Jack Straw
02 - Friend Of The Devil
03 - Little Red Rooster
04 - Brown Eyed Women
05 - Mama Tried >
06 - Mexicali Blues
07 - Althea
08 - My Brother Esau >
09 - Deal >
10 - Promised Land

Set 2:
11 - Scarlet Begonias >
12 - Fire On The Mountain >
13 - Estimated Prophet >
14 - Eyes of the World >
15 - The Other One >
16 - Drums >
17 - Space >
18 - The Other One >
19 - Stella Blue >
20 - Around & Around >
21 - One More Saturday Night
Encore:
22 - Touch Of Grey




    length     expanded size    cdr  WAVE problems  fmt   ratio  filename
     6:24.733      73868844 B   cxx   --   ---xx   flac  0.5994  gd83-03-26 01 Jack Straw.flac
     9:16.053     106762284 B   cxx   --   ---xx   flac  0.6200  gd83-03-26 02 Friend Of The Devil.flac
     9:24.693     108421164 B   cxx   --   ---xx   flac  0.6240  gd83-03-26 03 Little Red Rooster.flac
     4:57.227      57067564 B   cxx   --   ---xx   flac  0.6285  gd83-03-26 04 Brown Eyed Women.flac
     2:46.013      31874604 B   cxx   --   ---xx   flac  0.6318  gd83-03-26 05 Mama Tried.flac
     5:17.613      60981804 B   cxx   --   ---xx   flac  0.6286  gd83-03-26 06 Mexicali Blues.flac
     8:15.280      95093804 B   cxx   --   ---xx   flac  0.6107  gd83-03-26 07 Althea.flac
     5:55.840      68321324 B   cxx   --   ---xx   flac  0.6178  gd83-03-26 08 My Brother Esau.flac
     8:26.333      97216044 B   cxx   --   ---xx   flac  0.6401  gd83-03-26 09 Deal.flac
     4:07.040      47431724 B   cxx   --   ---xx   flac  0.6382  gd83-03-26 10 Promised Land.flac
    12:52.667     148352044 B   cxx   --   ---xx   flac  0.5582  gd83-03-26 11 Scarlet Begonias.flac
    10:08.760     116881964 B   cxx   --   ---xx   flac  0.5757  gd83-03-26 12 Fire On The Mountain.flac
    12:11.587     140464684 B   cxx   --   ---xx   flac  0.5561  gd83-03-26 13 Estimated Prophet.flac
     8:17.947      95605804 B   cxx   --   ---xx   flac  0.6090  gd83-03-26 14 Eyes Of The World.flac
     4:47.280      55157804 B   cxx   --   ---xx   flac  0.6111  gd83-03-26 15 The Other One.flac
     7:28.800      86169644 B   cxx   --   ---xx   flac  0.5566  gd83-03-26 16 Drums.flac
     5:22.293      61880364 B   cxx   --   ---xx   flac  0.5144  gd83-03-26 17 Space.flac
     5:25.573      62510124 B   cxx   --   ---xx   flac  0.5908  gd83-03-26 18 The Other One.flac
     7:16.213      83753004 B   cxx   --   ---xx   flac  0.5804  gd83-03-26 19 Stella Blue.flac
     3:52.707      44679724 B   cxx   --   ---xx   flac  0.6356  gd83-03-26 20 Around & Around.flac
     5:20.600      61555244 B   cxx   --   ---xx   flac  0.6350  gd83-03-26 21 One More Saturday Night.flac
     6:43.076      77390620 B   cxx   --   ---xx   flac  0.6418  gd83-03-26 22 Touch Of Grey.flac
   154:38.329    1781440184 B                            0.5995  (22 files)

No errors occured.


Show Checksums
ffp
gd83-03-26 01 Jack Straw.flac:9c6515301840233655580b9c538dbaf6
gd83-03-26 02 Friend Of The Devil.flac:5b4b9480a63996ea1ad2e5a1e5bee165
gd83-03-26 03 Little Red Rooster.flac:2039a302e5da52a905242c3c2aca47c4
gd83-03-26 04 Brown Eyed Women.flac:dfa99aa7afc0bf09ffda6b63623eb936
gd83-03-26 05 Mama Tried.flac:324460dd44a2970a786b979513e6b609
gd83-03-26 06 Mexicali Blues.flac:b04ee53534bf1dafce0e36c2092e1a8f
gd83-03-26 07 Althea.flac:a727db9ef14b3677a15d8d7b118bf782
gd83-03-26 08 My Brother Esau.flac:574261710e1386ac687f75d505c1e423
gd83-03-26 09 Deal.flac:11acc394d8a3085192ae25a27b0c0c09
gd83-03-26 10 Promised Land.flac:76ac18d64ea0925ae2f16e1df0b0836d
gd83-03-26 11 Scarlet Begonias.flac:16684f6f2d976fce470d3677f80edb9b
gd83-03-26 12 Fire On The Mountain.flac:6c0490ac3f8c390399490dc7e8b751cd
gd83-03-26 13 Estimated Prophet.flac:36df0e07b15152862b78e4ba990efc6b
gd83-03-26 14 Eyes Of The World.flac:6451d1834f5ca20399958a94d27f40bd
gd83-03-26 15 The Other One.flac:2caac58e0e190291efab69621da9260e
gd83-03-26 16 Drums.flac:42865f9ce0b563c8c25cea963b205b52
gd83-03-26 17 Space.flac:7117113b2e58a43b7d56e626757581be
gd83-03-26 18 The Other One.flac:efd5b6589c96ca297a984f05f59bb7d4
gd83-03-26 19 Stella Blue.flac:670024c5a8b94bc0cd40c8b0c8d7c33c
gd83-03-26 20 Around & Around.flac:100146c89671e9109b4c4edc425c29c7
gd83-03-26 21 One More Saturday Night.flac:a5683eb9417e0968f142c90b2782cc3d
gd83-03-26 22 Touch Of Grey.flac:3f0da0d0dcde6ce9c5e9adff2c912598
flac-md5
082e43f2419fba424c0176b54d60a3ae *gd83-03-26 01 Jack Straw.flac
f058c00066cf685a1a87ec67e6504eec *gd83-03-26 02 Friend Of The Devil.flac
571e177eace3930908d41c8472fc2e5b *gd83-03-26 03 Little Red Rooster.flac
ff2c3faf6606cf1de6cf67b70838a8e6 *gd83-03-26 04 Brown Eyed Women.flac
44a5652b4edc2340949cb4b824384c5a *gd83-03-26 05 Mama Tried.flac
ac8836f2a46ef51aa5392f78a5e3fa09 *gd83-03-26 06 Mexicali Blues.flac
addbd4ebd1b8f724e079a6e7511902fc *gd83-03-26 07 Althea.flac
7bcebc05f36a56a5f940496dae8f38d7 *gd83-03-26 08 My Brother Esau.flac
f5773b4caa5c65298d7afae5da70c3e3 *gd83-03-26 09 Deal.flac
2e7666a1419810911add72775a12417f *gd83-03-26 10 Promised Land.flac
99dc83df4c753fd0de5c170fb602de07 *gd83-03-26 11 Scarlet Begonias.flac
14e21ca4e2e05b9a6d1642e26d25c427 *gd83-03-26 12 Fire On The Mountain.flac
f89c99fa77e59fd5be52c78f80a38c80 *gd83-03-26 13 Estimated Prophet.flac
0c0cf408e76492fff4edfb6dad2a0556 *gd83-03-26 14 Eyes Of The World.flac
702b8bb4ebe703fa612de72e605ddfc4 *gd83-03-26 15 The Other One.flac
2446f073021bd08bfaff75acf4827bba *gd83-03-26 16 Drums.flac
8d80a9a994bd6ae2a2f86bea576c600a *gd83-03-26 17 Space.flac
b871b3f75189adfdb568a5c54cc74c73 *gd83-03-26 18 The Other One.flac
8aac88ad8a02581cf6f24e30768cbe30 *gd83-03-26 19 Stella Blue.flac
4d6285b906b7e1858f83bb7428ce445c *gd83-03-26 20 Around & Around.flac
aa9c94959260447ff4b86b988d35c164 *gd83-03-26 21 One More Saturday Night.flac
a3203d9cc32db93e8a9fc577c9f36755 *gd83-03-26 22 Touch Of Grey.flac

Comments
Add Comment
Other Sources (comments)
AUD>MC>DAT>CDR KM 54?s; via... (0) flac16; Set2:... (0) flac16/48; Set2:... (0) flac16; Recording... (0) flac16; AUD:... (0) flac16/44.1 ... (0) flac24/48 Recording... (0)
Date User Comment