Browse Collections Artists Sources   Search Dates

Add Show    List Management    Help


Grateful Dead 03/27/83
Irvine Meadows, Irvine, CA
Comments Add Comment    Source Collectors    Add to Collection    Add to Want List    History
Source # 140316 Other Sources
Entered by Matt Vernon
Checksums flac-md5 , ffp
Disc Counts 0 / 0
Media Size
Date Circulated
Date Added
12/21/2017
12/21/2017
Source Summary flac16/48kHz; Set 2 Recording Info: Master Soundboard Cassette -> Technics Reel to Reel -> Panasonic SV-3800 Dat 16/48; Transfer Info: Sony PCM-R500 16/48 -> Tascam DA-3000 16/48 > Adobe Audition 3.0 -> TLH flac1648 
  Archive
Source Information - Download Text | Download Zip
Grateful Dead
Irvine Meadows Amphitheatre
Irvine, CA
Sunday March 27, 1983

Recording Info:
Master Soundboard Cassette -> Technics Reel to Reel -> Panasonic SV-3800 Dat 16/48

Transfer Info:
Sony PCM-R500 16/48 -> Tascam DA-3000 16/48 > Adobe Audition 3.0 -> TLH flac1648

Notes:
- Thanks to Rob Eaton for the source Dat
- Thanks to Charlie Miller for the transfer
- 1st soundboard in circulation for this date (Dec 2017)

Mastered by Scott Clugston
12/21/2017

Set 2:
s2 t01 - China Cat Sunflower >
s2 t02 - I Know You Rider >
s2 t03 - Samson & Delilah
s2 t04 - He's Gone >
s2 t05 - Truckin' >
s2 t06 - Drums >
s2 t07 - Space >
s2 t08 - Throwing Stones >
s2 t09 - Wharf Rat >
s2 t10 - Good Lovin'
Encore
s2 t11 - US Blues



    length     expanded size    cdr  WAVE problems  fmt   ratio  filename
     6:39.147      76636204 B   cxx   --   ---xx   flac  0.5941  gd83-03-27 s2 01 China Cat Sunflower.flac
     5:38.747      65039404 B   cxx   --   ---xx   flac  0.6441  gd83-03-27 s2 02 I Know You Rider.flac
     8:50.720     101898284 B   cxx   --   ---xx   flac  0.6340  gd83-03-27 s2 03 Samson & Delilah.flac
    11:54.147     137116204 B   cxx   --   ---xx   flac  0.6019  gd83-03-27 s2 04 He's Gone.flac
     7:58.867      91942444 B   cxx   --   ---xx   flac  0.6232  gd83-03-27 s2 05 Truckin'.flac
     7:51.773      90580524 B   cxx   --   ---xx   flac  0.5203  gd83-03-27 s2 06 Drums.flac
     8:27.880      97513004 B   cxx   --   ---xx   flac  0.5251  gd83-03-27 s2 07 Space.flac
     7:55.213      91241004 B   cxx   --   ---xx   flac  0.6259  gd83-03-27 s2 08 Throwing Stones.flac
    10:13.173     117729324 B   cxx   --   ---xx   flac  0.6054  gd83-03-27 s2 09 Wharf Rat.flac
     8:57.560     103211564 B   cxx   --   ---xx   flac  0.6367  gd83-03-27 s2 10 Good Lovin'.flac
     5:06.488      58845824 B   cxx   --   ---xx   flac  0.6271  gd83-03-27 s2 11 US Blues.flac
    89:33.715    1031753784 B                            0.6021  (11 files)

No errors occured.


Show Checksums
flac-md5
1e1b4bcddac51c44b40b47368b023dd9 *gd83-03-27 s2 01 China Cat Sunflower.flac
c68b19d92df4446092a25e4a645ab700 *gd83-03-27 s2 02 I Know You Rider.flac
e3808ebbb06a868c68d55b2dd9e58c97 *gd83-03-27 s2 03 Samson & Delilah.flac
822efea17a9ddf5dea405ef1cb8394f2 *gd83-03-27 s2 04 He's Gone.flac
7fdf38e641dbe1e262c7cff36a88782d *gd83-03-27 s2 05 Truckin'.flac
121589aa669077602ed84a7faeefae34 *gd83-03-27 s2 06 Drums.flac
16e3f1ab2af58e32405958100d7cae29 *gd83-03-27 s2 07 Space.flac
eadebfe1598ea770efe1bd3547415b92 *gd83-03-27 s2 08 Throwing Stones.flac
55c6951ae165dc8f6fe2a13f58a740da *gd83-03-27 s2 09 Wharf Rat.flac
98d14cecee19230519a828d8f4590ad7 *gd83-03-27 s2 10 Good Lovin'.flac
6892f2227e6574ee76933d6226ea6e79 *gd83-03-27 s2 11 US Blues.flac
ffp
gd83-03-27 s2 01 China Cat Sunflower.flac:9d9dde8d45750814f3f86c5435702714
gd83-03-27 s2 02 I Know You Rider.flac:627cf35774ecec60ba866864d47691b6
gd83-03-27 s2 03 Samson & Delilah.flac:eef3358329b5062c878743dd0491d0d1
gd83-03-27 s2 04 He's Gone.flac:c8230cdb75dba6356f5b681ab84224d5
gd83-03-27 s2 05 Truckin'.flac:1150ccd4755aa2a3d0370e956f12a9d5
gd83-03-27 s2 06 Drums.flac:c5691145202f7e4e21f4c3ff750a9962
gd83-03-27 s2 07 Space.flac:fed08b0c7c7d486d048f99706f7cfee3
gd83-03-27 s2 08 Throwing Stones.flac:50e736683c815aeda7f748ec6518bf2d
gd83-03-27 s2 09 Wharf Rat.flac:77ed6548913fe9639da5fccc980ed9d1
gd83-03-27 s2 10 Good Lovin'.flac:e1d1ecc0fd02822feda2e132db855b70
gd83-03-27 s2 11 US Blues.flac:2f40ee90c67c4665a04a09ea6a0bd698

Comments
Add Comment
Other Sources (comments)
AUD> MC> DAT> CDR Senn... (0) flac16/48kHz; Set 2... (0) flac16/48kHz;... (0) flac16; Source Info:... (0)
Date User Comment