Browse Collections Artists Sources   Search Dates

Add Show    List Management    Help


Grateful Dead 03/28/81
Grugahalle, Essen, Germany
Comments Add Comment    Source Collectors    Add to Collection    Add to Want List    History
Source # 140323 Other Sources
Entered by Matt Vernon
Checksums ffp , flac-md5
Disc Counts 0 / 0
Media Size
Date Circulated
Date Added
12/22/2017
12/22/2017
Source Summary flac16/48kHz; Recording Info: Master FM Cassette > Dat 16/48; Transfer Info: Sony PCM-R500 16/48 > Tascam DA-3000 16/48 > Adobe Audition 3.0> TLH flac1648 
  Archive
Source Information - Download Text | Download Zip
Grateful Dead
Grugahalle
Essen, Germany
Saturday March 28, 1981

Recording Info:
Master FM Cassette > Dat 16/48

Transfer Info:
Sony PCM-R500 16/48 > Tascam DA-3000 16/48 > Adobe Audition 3.0> TLH flac1648

Notes:
- Thanks to Rob Eaton for the Dat
- Thanks to Charlie Miller for the transfer
- Thanks to the folks responsible for the shnind136977 FM source which supplies  the UK announcer at the beginning of the show, the final 0:14 of "Shakedown Street", a 0:27 patch in "The Other One", a 0:13 patch in "Wharf Rat", the final 2:45 of "Good Lovin'", as well as the UK announcer postscript at the end of the show
- Thanks to the folks responsible for the shnid22802 soundboard source which supplies the "One More Saturday Night" encore
- Flying Karamazov Brothers on stage during "Drums"
- Pete Townshend on guitar for "Not Fade Away > Wharf Rat > Around & Around"
- This copy does not have the DJ comments when Flying Karamazov Brothers take the stage or when Pete Townshend comes on stage after "Drums"
- Short segue out of "Drums" into "Not Fade Away" included in "Not Fade Away"

Mastered by Scott Clugston
12/16/17

Set 1:
01 - UK Announcer/German MC/Tuning
02 - Alabama Getaway >
03 - Greatest Story Ever Told
04 - Sugaree
05 - Me & My Uncle >
06 - Mexicali Blues
07 - Shakedown Street
08 - Little Red Rooster
09 - Althea >
10 - Looks Like Rain >
11 - Deal

Set 2:
12 - Crowd/Tuning
13 - Samson & Delilah
14 - Ship Of Fools
15 - Estimated Prophet >
16 - He's Gone >
17 - The Other One >
18 - Drums >
19 - Not Fade Away >
20 - Wharf Rat >
21 - Around & Around >
22 - Good Lovin'
23 - Encore Break
24 - One More Saturday Night
     UK Announcer Postscript



    length     expanded size    cdr  WAVE problems  fmt   ratio  filename
     2:18.200      26534444 B   cxx   --   ---xx   flac  0.4757  gd81-03-28 01 Intro_Tuning.flac
     4:40.147      53788204 B   cxx   --   ---xx   flac  0.5563  gd81-03-28 02 Alabama Getaway.flac
     4:06.840      47393324 B   cxx   --   ---xx   flac  0.5409  gd81-03-28 03 Greatest Story Ever Told.flac
    13:56.440     160596524 B   cxx   --   ---xx   flac  0.5112  gd81-03-28 04 Sugaree.flac
     2:54.307      33466924 B   cxx   --   ---xx   flac  0.5289  gd81-03-28 05 Me & My Uncle.flac
     5:56.080      68367404 B   cxx   --   ---xx   flac  0.5097  gd81-03-28 06 Mexicali Blues.flac
    12:32.840     144545324 B   cxx   --   ---xx   flac  0.5506  gd81-03-28 07 Shakedown Street.flac
     9:37.000     110784044 B   cxx   --   ---xx   flac  0.5472  gd81-03-28 08 Little Red Rooster.flac
     9:26.587     108784684 B   cxx   --   ---xx   flac  0.5461  gd81-03-28 09 Althea.flac
     8:28.693      97669164 B   cxx   --   ---xx   flac  0.5343  gd81-03-28 10 Looks Like Rain.flac
     9:11.053     105802284 B   cxx   --   ---xx   flac  0.5841  gd81-03-28 11 Deal.flac
     1:42.520      19683884 B   cxx   --   ---xx   flac  0.4355  gd81-03-28 12 Crowd_Tuning.flac
     8:27.693      97477164 B   cxx   --   ---xx   flac  0.5376  gd81-03-28 13 Samson & Delilah.flac
     9:35.200     110438444 B   cxx   --   ---xx   flac  0.4724  gd81-03-28 14 Ship Of Fools.flac
    12:42.227     146347564 B   cxx   --   ---xx   flac  0.5272  gd81-03-28 15 Estimated Prophet.flac
    10:22.840     119585324 B   cxx   --   ---xx   flac  0.4881  gd81-03-28 16 He's Gone.flac
     8:50.160     101790764 B   cxx   --   ---xx   flac  0.5699  gd81-03-28 17 The Other One.flac
    22:14.920     256304684 B   cxx   --   ---xx   flac  0.4873  gd81-03-28 18 Drums.flac
    11:23.547     131241004 B   cxx   --   ---xx   flac  0.5603  gd81-03-28 19 Not Fade Away.flac
     9:31.640     109754924 B   cxx   --   ---xx   flac  0.5168  gd81-03-28 20 Wharf Rat.flac
     4:03.387      46730284 B   cxx   --   ---xx   flac  0.5540  gd81-03-28 21 Around & Around.flac
     7:31.107      86612524 B   cxx   --   ---xx   flac  0.5734  gd81-03-28 22 Good Lovin'.flac
     1:18.373      15047724 B   cxx   --   ---xx   flac  0.4956  gd81-03-28 23 Encore Break.flac
     5:17.965      61049356 B   cxx   --   ---xx   flac  0.6207  gd81-03-28 24 One More Saturday Night.flac
   196:09.765    2259795968 B                            0.5307  (24 files)

No errors occured.


Show Checksums
ffp
gd81-03-28 01 Intro_Tuning.flac:d7296e00a709bf6c9da5051023ce2826
gd81-03-28 02 Alabama Getaway.flac:a5c5202fb184014cc86f3134e9b2cf0c
gd81-03-28 03 Greatest Story Ever Told.flac:7af9b50cf3dafcd386caba9e9da820ec
gd81-03-28 04 Sugaree.flac:ac286d6dcf3f64f98957660f05d660ba
gd81-03-28 05 Me & My Uncle.flac:02dbd302c530b089f660f9e04026022f
gd81-03-28 06 Mexicali Blues.flac:af5a1d602616ab6a91be741c0ab82ebc
gd81-03-28 07 Shakedown Street.flac:81774cfd4060279a99346fd85a25e2fd
gd81-03-28 08 Little Red Rooster.flac:6b3185d4e5a5eb80526d3ca07b0ccefa
gd81-03-28 09 Althea.flac:b473540106e0228ab41ce0d8fa2dea6d
gd81-03-28 10 Looks Like Rain.flac:d35072b4cd811a82ca49c2acb942d813
gd81-03-28 11 Deal.flac:beebd8991b317c00cd38932f4047cec3
gd81-03-28 12 Crowd_Tuning.flac:2d2890baff6927a8822b8ed2cd6a252b
gd81-03-28 13 Samson & Delilah.flac:3f37e758373cdf3a5048f321ebc15300
gd81-03-28 14 Ship Of Fools.flac:2d7bf551f87c1837f9cf40b2f52c42c5
gd81-03-28 15 Estimated Prophet.flac:dfa86083110554e06a2d0e67e5088c6b
gd81-03-28 16 He's Gone.flac:e41f6eb48fd2e8ca07e99180023e0af0
gd81-03-28 17 The Other One.flac:31d646a6c57b9fc6568f8f34a0cba28b
gd81-03-28 18 Drums.flac:ba13bde0734451cb4d7ec89d285d509f
gd81-03-28 19 Not Fade Away.flac:94ae357c03bddc97f7031315e5efccd2
gd81-03-28 20 Wharf Rat.flac:176d8e749a500e5ad9c52b3dfab1641e
gd81-03-28 21 Around & Around.flac:6eee35cde6c448fd89c296c476018c11
gd81-03-28 22 Good Lovin'.flac:0db9d11b702b5776501ae0f455e08446
gd81-03-28 23 Encore Break.flac:5e3ae3a29faabd88401eaf779f593d8e
gd81-03-28 24 One More Saturday Night.flac:ce555038ea25888fb9837d8f7582505c
flac-md5
c5caa53b054aea4850459325adb9687e *gd81-03-28 01 Intro_Tuning.flac
6642882f9123dfcfc996350e4185a8e5 *gd81-03-28 02 Alabama Getaway.flac
c36b69fffe7e05cd53effab39c66b105 *gd81-03-28 03 Greatest Story Ever Told.flac
014c1c359f1d766c627481fcb1714ce8 *gd81-03-28 04 Sugaree.flac
4f10c055f8697311f74c9d99e97e18a6 *gd81-03-28 05 Me & My Uncle.flac
e4114219b81e74dc271b86e617c71441 *gd81-03-28 06 Mexicali Blues.flac
03be7eaa0decc32ba31c212225fef979 *gd81-03-28 07 Shakedown Street.flac
7b48219a22995c337061327ffff619c5 *gd81-03-28 08 Little Red Rooster.flac
81853618f185e53b7a3e9d5704f835ec *gd81-03-28 09 Althea.flac
6e984b5ef1d820a09ba2af2e79b2c8d2 *gd81-03-28 10 Looks Like Rain.flac
e46cfdfb61a9dab7a46e6e54633f6623 *gd81-03-28 11 Deal.flac
dd3fd6991146e69fd000369af744f2f5 *gd81-03-28 12 Crowd_Tuning.flac
82ba68e330ffda530cfa36088e28ba22 *gd81-03-28 13 Samson & Delilah.flac
ddc2a411db3e10dd96c61de62dd9896e *gd81-03-28 14 Ship Of Fools.flac
7e12fe31cd0333fc4969ffa0d62e2f17 *gd81-03-28 15 Estimated Prophet.flac
7384a3f66c3ddd3288896c6d33c9c9c4 *gd81-03-28 16 He's Gone.flac
70b3476f963b149d811167aa8651dd0e *gd81-03-28 17 The Other One.flac
f2d2b7d8acd7e9fd3aeed2d9c284f50d *gd81-03-28 18 Drums.flac
3a995047a58467c03ad301a72c5be780 *gd81-03-28 19 Not Fade Away.flac
25c865589030e57a0b8508e74e3283a2 *gd81-03-28 20 Wharf Rat.flac
e97a998f293fd45bb0d3b90229a03851 *gd81-03-28 21 Around & Around.flac
55cfcaaa8b6b387bbe29f8f431bf7f88 *gd81-03-28 22 Good Lovin'.flac
54ceb67ac1275fc383710214efa6c1a2 *gd81-03-28 23 Encore Break.flac
22a3752ff6c0047c033f077ca0092c4c *gd81-03-28 24 One More Saturday Night.flac

Comments
Add Comment
Other Sources (comments)
updated lineage: copy of... (2) stereo FM -> reel master ->... (4) partial set 2 (post Drums);... (1) flac16; SBE fixed... (0) flac16; FM (live... (0) flac24; Recording... (0)
Date User Comment