Browse Collections Artists Sources   Search Dates

Add Show    List Management    Help


Grateful Dead 12/27/81
Oakland Auditorium Arena, Oakland, CA
Comments Add Comment    Source Collectors    Add to Collection    Add to Want List    History
Source # 140329 Other Sources
Entered by Matt Vernon
Checksums ffp , flac-md5
Disc Counts 0 / 0
Media Size
Date Circulated
Date Added
12/23/2017
12/23/2017
Source Summary flac16; Recording Info: Vault Master Soundboard Cassette -> PCM; Transfer Info: PCM (Sony SL-10) > Sony PCM 601ESD > Behringer Ultramatch Pro > Tascam DA-3000 > Adobe Audition 3.0 > TLH flac16 
  Archive
Source Information - Download Text | Download Zip
Grateful Dead
Oakland Auditorium
Oakland, CA
Sunday December 27, 1981

Recording Info:
Vault Master Soundboard Cassette -> PCM

Transfer Info:
PCM (Sony SL-10) > Sony PCM 601ESD > Behringer Ultramatch Pro > Tascam DA-3000 > Adobe Audition 3.0 > TLH flac16

Notes:
- Thanks to David Gans for the source PCM
- Thanks to Charlie Miller for the transfer
- Thanks to the folks responsible for the shnid33568 soundboard source which supplies the final 0:09 of "Sugar Magnolia", as well as "It's All Over Now, Baby Blue" in its entirety
- Thanks to the folks responsible for the shnid120133 Nakamichi CM300 soource which supplies a 0:21 patch at the end of "Drums" into the beginning of "Space"
- Wheel space included in "The Wheel"
- Updated transfer info, my bad

Mastered by Scott Clugston
12/22/2017

Set 1:
01 - Tuning
02 - New Minglewood Blues >
03 - Sugaree
04 - Cassidy
05 - Deep Elem Blues >
06 - CC Rider
07 - Friend Of the Devil
08 - Passenger
09 - Althea >
10 - Looks Like Rain >
11 - Deal

Set 2:
12 - Samson & Delilah
13 - To Lay Me Down
14 - Playin' In The Band >
15 - Drums >
16 - Space >
17 - The Wheel >
18 - Playin' In The Band Reprise >
19 - Wharf Rat >
20 - Sugar Magnolia
Encore:
21 - It's All Over Now, Baby Blue
20 - One More Saturday Night




    length     expanded size    cdr  WAVE problems  fmt   ratio  filename
     2:18.61       24486716 B   ---   --   ---xx   flac  0.5171  gd81-12-27 01 Tuning.flac
     6:55.05       73217804 B   ---   --   ---xx   flac  0.6207  gd81-12-27 02 New Minglewood Blues.flac
    10:58.43      116172380 B   ---   --   ---xx   flac  0.5973  gd81-12-27 03 Sugaree.flac
     6:22.59       67523612 B   ---   --   ---xx   flac  0.6291  gd81-12-27 04 Cassidy.flac
     5:58.21       63200636 B   ---   --   ---xx   flac  0.6241  gd81-12-27 05 Deep Elem Blues.flac
     8:02.22       85076588 B   ---   --   ---xx   flac  0.5926  gd81-12-27 06 CC Rider.flac
     9:55.51      105077996 B   ---   --   ---xx   flac  0.6097  gd81-12-27 07 Friend Of the Devil.flac
     5:19.00       56271644 B   ---   --   ---xx   flac  0.6614  gd81-12-27 08 Passenger.flac
     6:10.14       65300972 B   ---   --   ---xx   flac  0.6116  gd81-12-27 09 Althea.flac
     9:12.13       97403420 B   ---   --   ---xx   flac  0.5884  gd81-12-27 10 Looks Like Rain.flac
     6:24.45       67843484 B   ---   --   ---xx   flac  0.6553  gd81-12-27 11 Deal.flac
     7:32.44       79836332 B   ---   --   ---xx   flac  0.6458  gd81-12-27 12 Samson & Delilah.flac
     8:31.58       90276860 B   ---   --   ---xx   flac  0.5816  gd81-12-27 13 To Lay Me Down.flac
    16:50.07      178180508 B   ---   --   ---xx   flac  0.6273  gd81-12-27 14 Playin' In The Band.flac
     7:36.27       80501948 B   ---   --   ---xx   flac  0.5736  gd81-12-27 15 Drums.flac
     9:36.10      101629964 B   ---   --   ---xx   flac  0.5596  gd81-12-27 16 Space.flac
     8:02.74       85198892 B   ---   --   ---xx   flac  0.6143  gd81-12-27 17 The Wheel.flac
     3:57.06       41820956 B   ---   --   ---xx   flac  0.6160  gd81-12-27 18 Playin' In The Band Reprise.flac
     9:13.61       97692716 B   ---   --   ---xx   flac  0.6092  gd81-12-27 19 Wharf Rat.flac
     9:42.47      102775388 B   ---   --   ---xx   flac  0.6616  gd81-12-27 20 Sugar Magnolia.flac
     7:11.05       76040204 B   ---   --   ---xx   flac  0.5795  gd81-12-27 21 It's All Over Now, Baby Blue.flac
   165:51.73     1755529020 B                            0.6103  (21 files)

No errors occured.


Show Checksums
ffp
gd81-12-27 01 Tuning.flac:2ef9e639169417d3ebad0cc12a73ffec
gd81-12-27 02 New Minglewood Blues.flac:489dc8bb5a8286a4e1ca60013420b23a
gd81-12-27 03 Sugaree.flac:8abf6a1480a30181e51fe65245cb06d9
gd81-12-27 04 Cassidy.flac:bced1078ee6d21167544aec2b90eb737
gd81-12-27 05 Deep Elem Blues.flac:0a8f994edbc182cd0819a0a59788050f
gd81-12-27 06 CC Rider.flac:232585d81332b34cc04e248c0e469ae1
gd81-12-27 07 Friend Of the Devil.flac:62b1288487e8c7d4326ccc4be5c51443
gd81-12-27 08 Passenger.flac:fe1b95e6b1a9ba19717b6f320d9160bf
gd81-12-27 09 Althea.flac:e383f24a1d3bf68c1e8561d11e728b2b
gd81-12-27 10 Looks Like Rain.flac:68302ea65c982d80d50fef5f62a3b504
gd81-12-27 11 Deal.flac:64351adaa7b29c4ccf12c39c8f9f0028
gd81-12-27 12 Samson & Delilah.flac:c666628e6f94cd1d8809b13c04eb119c
gd81-12-27 13 To Lay Me Down.flac:95abf2704b122e6aa6782ebf35bc9450
gd81-12-27 14 Playin' In The Band.flac:f783d7168daff6cd458816ef34c7f620
gd81-12-27 15 Drums.flac:5b862d350b8a6a0c743f8550ee88397b
gd81-12-27 16 Space.flac:0a6ec6b8ff466ad295a96538ad422dbe
gd81-12-27 17 The Wheel.flac:70deb85fcb8456d2c52bd31e9b3c2dc1
gd81-12-27 18 Playin' In The Band Reprise.flac:2fcaf880d299ba06397d5e63522d75dc
gd81-12-27 19 Wharf Rat.flac:2550638e24ff0ea0ea4e3e7c895f0e33
gd81-12-27 20 Sugar Magnolia.flac:543efea98d269649c2376146ade9b3db
gd81-12-27 21 It's All Over Now, Baby Blue.flac:0ba8eb387d69adec757603856ef402d6
flac-md5
5c98e2b6d9ec6053a8f6a20671255f07 *gd81-12-27 01 Tuning.flac
935c508ded9378e010c014b8630bf180 *gd81-12-27 02 New Minglewood Blues.flac
c9a5000de329328cdd3c045d633de618 *gd81-12-27 03 Sugaree.flac
bf7511754fe7762d51cfb90fb04210e1 *gd81-12-27 04 Cassidy.flac
238146036019ec8907dcf7bf04da5ac0 *gd81-12-27 05 Deep Elem Blues.flac
2d79d51c3ef1099b86b1734c718854b5 *gd81-12-27 06 CC Rider.flac
b6cf513323a35429a67e566b05aaf56c *gd81-12-27 07 Friend Of the Devil.flac
d3ccd335a2be811a5f24c19cd12e36c6 *gd81-12-27 08 Passenger.flac
a60c981f866b66978329950b50187436 *gd81-12-27 09 Althea.flac
9ae60c3bd611c6856b6f1774f39c0158 *gd81-12-27 10 Looks Like Rain.flac
e6d42f054602ebf80249208ff2201b86 *gd81-12-27 11 Deal.flac
8ec3325c3cd0b2169ad6a67491821af1 *gd81-12-27 12 Samson & Delilah.flac
b65d2a983dde4adde9a84839767bf65b *gd81-12-27 13 To Lay Me Down.flac
68fe657e7679ef29e058606d847c41e8 *gd81-12-27 14 Playin' In The Band.flac
0d6ac452fa648d150ed5dbeb18a7fc22 *gd81-12-27 15 Drums.flac
0201adb0a1a9c83b7caa04659cff5d41 *gd81-12-27 16 Space.flac
a50938c5f4697fa4ae506672861cfaeb *gd81-12-27 17 The Wheel.flac
e481409c827c7e6faf375b0139802109 *gd81-12-27 18 Playin' In The Band Reprise.flac
d38006315b3e2bf18471206ff8f9403c *gd81-12-27 19 Wharf Rat.flac
be011850a69f9894d1d2cab6e1a5c4ac *gd81-12-27 20 Sugar Magnolia.flac
128a32b6980ceb3ba12335de874ae178 *gd81-12-27 21 It's All Over Now, Baby Blue.flac

Comments
Add Comment
Other Sources (comments)
SBD>MC>DAT>CD; Missing Baby... (0) Master Soundboard Cassette... (0) flac16; Recording... (1) flac16; Source:... (0) flac16; Audience... (2)
Date User Comment