Browse Collections Artists Sources   Search Dates

Add Show    List Management    Help


Grateful Dead 08/29/83
Silva Hall, Hult Center, Eugene, OR
Comments Add Comment    Source Collectors    Add to Collection    Add to Want List    History
Source # 140330 Other Sources
Entered by Matt Vernon
Checksums ffp , flac-md5
Disc Counts 0 / 0
Media Size
Date Circulated
Date Added
12/23/2017
12/23/2017
Source Summary flac16/48kHz; Recording Info: Master Soundboard Cassette -> Tascam MKIII 1st Gen Cassette -> Panasonic SV-3800 Dat 16/48; Transfer Info: Sony PCM-R500 16/48 -> Tascam DA-3000 16/48 > Adobe Audition 3.0 -> TLH flac1648 
  Archive
Source Information - Download Text | Download Zip
Grateful Dead
Silva Hall
Hult Center For The Performing Arts
Eugene, OR
Monday August 29, 1983

Recording Info:
Master Soundboard Cassette -> Tascam mkIII 1st Gen Cassette -> Panasonic SV-3800 Dat 16/48

Transfer Info:
Sony PCM-R500 16/48 -> Tascam DA-3000 16/48 > Adobe Audition 3.0 -> TLH flac1648

Notes:
- Thanks to Rob Eaton for the source Dat
- Thanks to Charlie Miller for the transfer
- First verifiable source for this date
- "New Minglewood Blues", "Friend Of The Devil", Hell In A Bucket" and the first 0:56 of "Bird Song" are mono, don't know why, received from Rob that way
- Thanks to the folks responsible for the shnid135945 PCM soundboard source which supplies a 0:16 patch in "Estimated Prophet"
- Thanks to the folks responsible for the shnid105523 Nakamichi CM300 source which supplies a 0:15 patch in the transition between "The Other One" and "Goin' Down The Road Feeling Bad"
- Between song transitions smoothed

Mastered by Scott Clugston
12/23/2017

Set 1:
01 - Tuning
02 - Shakedown Street
03 - New Minglewood Blues
04 - Friend Of the Devil
05 - Hell In A Bucket
06 - Bird Song
07 - It's All Over Now
08 - Might as Well

Set 2:
09 - China Cat Sunflower >
10 - I Know You Rider
11 - Estimated Prophet >
12 - Eyes Of The World >
13 - Drums >
14 - Space >
15 - The Wheel >
16 - The Other One >
17 - Goin' Down The road Feeling Bad >
18 - Johnny B. Goode
Encore:
19 - US Blues




    length     expanded size    cdr  WAVE problems  fmt   ratio  filename
     0:47.187       9059884 B   cxx   --   ---xx   flac  0.5311  gd83-08-29 01 Tuning.flac
    14:01.280     161525804 B   cxx   --   ---xx   flac  0.5897  gd83-08-29 02 Shakedown Street.flac
     9:14.667     106496044 B   cxx   --   ---xx   flac  0.4255  gd83-08-29 03 New Minglewood Blues.flac
     9:52.587     113776684 B   cxx   --   ---xx   flac  0.4116  gd83-08-29 04 Friend Of The Devil.flac
     5:29.507      63265324 B   cxx   --   ---xx   flac  0.4561  gd83-08-29 05 Hell In A Bucket.flac
    10:24.280     119861804 B   cxx   --   ---xx   flac  0.6148  gd83-08-29 06 Bird Song.flac
     8:57.547     103209004 B   cxx   --   ---xx   flac  0.6396  gd83-08-29 07 It's All Over Now.flac
     4:21.360      50181164 B   cxx   --   ---xx   flac  0.6499  gd83-08-29 08 Might As Well.flac
     8:18.867      95782444 B   cxx   --   ---xx   flac  0.6195  gd83-08-29 09 China Cat Sunflower.flac
     6:15.987      72189484 B   cxx   --   ---xx   flac  0.6185  gd83-08-29 10 I Know You Rider.flac
    13:17.880     153193004 B   cxx   --   ---xx   flac  0.6151  gd83-08-29 11 Estimated Prophet.flac
    10:29.360     120837164 B   cxx   --   ---xx   flac  0.6406  gd83-08-29 12 Eyes Of The World.flac
    11:56.467     137561644 B   cxx   --   ---xx   flac  0.5774  gd83-08-29 13 Drums.flac
     7:13.400      83212844 B   cxx   --   ---xx   flac  0.5439  gd83-08-29 14 Space.flac
     5:13.187      60131884 B   cxx   --   ---xx   flac  0.6226  gd83-08-29 15 The Wheel.flac
     6:11.907      71406124 B   cxx   --   ---xx   flac  0.6274  gd83-08-29 16 The Other One.flac
     7:50.307      90298924 B   cxx   --   ---xx   flac  0.6261  gd83-08-29 17 Goin' Down The Road Feeling Bad.flac
     4:04.147      46876204 B   cxx   --   ---xx   flac  0.6305  gd83-08-29 18 Johnny B. Goode.flac
     5:21.093      61649948 B   cxx   --   ---xx   flac  0.6311  gd83-08-29 19 US Blues.flac
   149:21.013    1720515380 B                            0.5818  (19 files)

No errors occured.


Show Checksums
ffp
gd83-08-29 01 Tuning.flac:c7ad79108a126a0491fd5dcdd0a27596
gd83-08-29 02 Shakedown Street.flac:236f2b6f677a28634e76a3eeaea942f4
gd83-08-29 03 New Minglewood Blues.flac:cdbc95417dbfdfa77c043f903c7f71a9
gd83-08-29 04 Friend Of The Devil.flac:f41ab376b643135836bb874f34685818
gd83-08-29 05 Hell In A Bucket.flac:2dd2f54b37bfe40678c0d47631b70985
gd83-08-29 06 Bird Song.flac:03a3a48c0151c1be8a3715ac3f120f8a
gd83-08-29 07 It's All Over Now.flac:9c72b085fb4eff8e0f761a1045f20026
gd83-08-29 08 Might As Well.flac:0839277aaf947bac444a1bce8875c294
gd83-08-29 09 China Cat Sunflower.flac:4abd65e39dac157fe2a93def6b3e07bc
gd83-08-29 10 I Know You Rider.flac:7d81dbf7f40a2868f344bd7a8da95c84
gd83-08-29 11 Estimated Prophet.flac:be812bd56e6928b3e3db14ba6f7ad965
gd83-08-29 12 Eyes Of The World.flac:dee9204a0640ce1fbc1b43343e3df610
gd83-08-29 13 Drums.flac:58a9ff8ecd23d1f715a604392960a766
gd83-08-29 14 Space.flac:265d0413a0756e32b5780bb986fe1387
gd83-08-29 15 The Wheel.flac:af04e682f306c127720c75bb93277a1c
gd83-08-29 16 The Other One.flac:d812ed2956577014677d723393714d33
gd83-08-29 17 Goin' Down The Road Feeling Bad.flac:23e41c57c744cb98904e107027fd5e69
gd83-08-29 18 Johnny B. Goode.flac:3070c026f6685c24bbb69779081df80c
gd83-08-29 19 US Blues.flac:f93245743ddb41b0e0b075aaf16bcc3d
flac-md5
d8ad4c83fa307f559ad4845fb2e6fc45 *gd83-08-29 01 Tuning.flac
100eeb9d6281c74b67314436b5b96b70 *gd83-08-29 02 Shakedown Street.flac
98cd3e13d3bfaa6733f04eb2b13c0230 *gd83-08-29 03 New Minglewood Blues.flac
317a399daa6b2f588027c88f26f390f7 *gd83-08-29 04 Friend Of The Devil.flac
5b1bdf726a8a5c0344251202b00faead *gd83-08-29 05 Hell In A Bucket.flac
2aa1f8736dbb3511e4211669aa0fa70d *gd83-08-29 06 Bird Song.flac
ed0102b52b7caf101ca7a2c64d8e85db *gd83-08-29 07 It's All Over Now.flac
d430fc5086106dda954aff64149cf43a *gd83-08-29 08 Might As Well.flac
f1a81f6ad0eb191d2b34877a4584875a *gd83-08-29 09 China Cat Sunflower.flac
6031931a2083544367c16d6e5f64a7eb *gd83-08-29 10 I Know You Rider.flac
2f65c839031b2b886fc114a7f6b50f48 *gd83-08-29 11 Estimated Prophet.flac
83542908efad06e4619d027e9436015a *gd83-08-29 12 Eyes Of The World.flac
31b76f2b4d3c92b3c269031028c81b55 *gd83-08-29 13 Drums.flac
de01a45ac796c76b855ca41d100a5901 *gd83-08-29 14 Space.flac
80e963a37edc1aa5e0bfd75dd8ff1ae7 *gd83-08-29 15 The Wheel.flac
52cbe8f786f0fa48b86bab0db21f925b *gd83-08-29 16 The Other One.flac
e550e9bfa5bd846217f90b597a5540f3 *gd83-08-29 17 Goin' Down The Road Feeling Bad.flac
bd5ea3a6bd07e66c43b26f477fbc9816 *gd83-08-29 18 Johnny B. Goode.flac
47af679bee6eb75fc7d2e5d1d453a227 *gd83-08-29 19 US Blues.flac

Comments
Add Comment
Other Sources (comments)
SBD>Cass(2)>DAT>CDR; Seeded... (0) flac16; Source:... (0) flac16; FOB AUD:... (0) flac16; Source: 2... (0) flac16; Soundboard >... (1) flac24; Source Info:... (0) flac16; Source Info:... (0) flac16/44.1 ... (0) flac24/48 Source:... (0)
Date User Comment