Browse Collections Artists Sources   Search Dates

Add Show    List Management    Help


Grateful Dead 04/02/87
The Centrum, Worcester, MA
Comments Add Comment    Source Collectors    Add to Collection    Add to Want List    History
Source # 140333 Other Sources
Entered by Matt Vernon
Checksums ffp , flac-md5
Disc Counts 0 / 0
Media Size Compressed: 953.12 MB (999419904 bytes)
Date Circulated
Date Added
12/23/2017
12/23/2017
Source Summary flac16; Recording Info: UltraMatrix SBD > Cassette Master (TDK MA-R90); Transfer Info: Cassette Master (Nakamichi CR-7A) > Tascam DA-3000 (DSF 1-bit/5.8 MHz) > KORG AudioGate 4 > Samplitude Pro X3 Suite > FLAC/24; All Transfers and Mastering By Charlie Miller 
  Archive
Source Information - Download Text | Download Zip
Grateful Dead - April 2, 1987
The Centrum - Worcester, MA

Recording Info:
UltraMatrix SBD > Cassette Master (TDK MA-R90)

Transfer Info:
Cassette Master (Nakamichi CR-7A) > Tascam DA-3000 (DSF 1-bit/5.8 MHz) >
KORG AudioGate 4 > Samplitude Pro X3 Suite > FLAC/24
(1 Disc FLAC)

All Transfers and Mastering By Charlie Miller
[email protected]
December 18, 2017

Notes:
-- Two sets of masters were used to make this show complete
-- This file set is 16 bit

Set 1:
01 - Tuning
02 - Cold Rain And Snow >
03 - New Minglewood Blues
04 - Dupree's Diamond Blues
05 - Far From Me
06 - Me And My Uncle >
07 - Mexicali Blues
08 - When Push Comes To Shove
09 - Beat It On Down The Line
10 - Bird Song >
11 - The Music Never Stopped

Set 2:
12 - Scarlet Begonias >
13 - Fire On The Mountain >
14 - Looks Like Rain >
15 - Eyes Of The World >
16 - Drums >
17 - Space >
18 - Gimme Some Lovin' >
19 - The Wheel >
20 - Black Peter >
21 - Around And Around >
22 - Good Lovin'

Encore:
23 - Encore Break
24 - Black Muddy River


SHNTOOL OUTPUT:
    length     expanded size    cdr  WAVE problems  fmt   ratio  filename
     1:28.35       15605564 B   ---   --   ---xx   flac  0.5635  01 Tuning.flac
     6:25.60       68055164 B   ---   --   ---xx   flac  0.6438  02 Cold Rain And Snow.flac
     8:52.22       93896588 B   ---   --   ---xx   flac  0.6202  03 New Minglewood Blues.flac
     7:23.72       78314588 B   ---   --   ---xx   flac  0.6189  04 Dupree's Diamond Blues.flac
     5:34.38       59007020 B   ---   --   ---xx   flac  0.6535  05 Far From Me.flac
     2:57.54       31349852 B   ---   --   ---xx   flac  0.6841  06 Me And My Uncle.flac
     5:23.15       57012524 B   ---   --   ---xx   flac  0.6635  07 Mexicali Blues.flac
     5:54.66       62600876 B   ---   --   ---xx   flac  0.6299  08 When Push Comes To Shove.flac
     3:09.16       33377276 B   ---   --   ---xx   flac  0.6698  09 Beat It On Down The Line.flac
     9:54.38      104871020 B   ---   --   ---xx   flac  0.6202  10 Bird Song.flac
     6:44.12       71293868 B   ---   --   ---xx   flac  0.6496  11 The Music Never Stopped.flac
     8:01.02       84853148 B   ---   --   ---xx   flac  0.6347  12 Scarlet Begonias.flac
     9:42.00      102664844 B   ---   --   ---xx   flac  0.6405  13 Fire On The Mountain.flac
     7:53.66       83592476 B   ---   --   ---xx   flac  0.6377  14 Looks Like Rain.flac
     6:57.17       73598828 B   ---   --   ---xx   flac  0.6429  15 Eyes Of The World.flac
    10:10.14      107636972 B   ---   --   ---xx   flac  0.5698  16 Drums.flac
     6:07.35       64821164 B   ---   --   ---xx   flac  0.5594  17 Space.flac
     4:31.46       47912636 B   ---   --   ---xx   flac  0.6432  18 Gimme Some Lovin'.flac
     4:05.58       43354460 B   ---   --   ---xx   flac  0.6337  19 The Wheel.flac
     9:23.14       99346172 B   ---   --   ---xx   flac  0.6134  20 Black Peter.flac
     3:35.04       37935452 B   ---   --   ---xx   flac  0.6623  21 Around And Around.flac
     8:03.59       85340012 B   ---   --   ---xx   flac  0.6604  22 Good Lovin'.flac
     0:54.53        9650300 B   ---   --   ---xx   flac  0.5849  23 Encore Break.flac
     7:02.06       74454956 B   ---   --   ---xx   flac  0.6030  24 Black Muddy River.flac
   150:16.52     1590545760 B                            0.6283  (24 files)



Show Checksums
ffp
01 Tuning.flac:13f79aebb7ecb70d3c287bb23d638dd3
02 Cold Rain And Snow.flac:a45d9afa429f02f8322d2bb98994e6ee
03 New Minglewood Blues.flac:78b86f238c1b742f3f493ddb293232c9
04 Dupree's Diamond Blues.flac:024b55583673d6aa041ff2b04eb64032
05 Far From Me.flac:f5c6023587cd001ff5aa138c30b3f124
06 Me And My Uncle.flac:6e5383b687ff13e6558fac1396b304e8
07 Mexicali Blues.flac:ce60a94233fcdb77b3209148eb317cf6
08 When Push Comes To Shove.flac:638e66445171b7003d8409403b25efa8
09 Beat It On Down The Line.flac:0119f204f3973aaf44c58bd7b00e3d89
10 Bird Song.flac:c37540ee75b2a4071d8d6af01804b9a0
11 The Music Never Stopped.flac:1fa55134000f63e8508edd9c6be07cf7
12 Scarlet Begonias.flac:b5534bf885aab62290c0a196d0f81cee
13 Fire On The Mountain.flac:610cfd0955e4486d6cd4310f3739dfc6
14 Looks Like Rain.flac:b9ac91d9dbfe305fd7ea3f67ba028a56
15 Eyes Of The World.flac:46e506330fd204e26ea93e95958d360a
16 Drums.flac:e6821ad30b9a9d24776f524426d2923a
17 Space.flac:ac9ca7e517a52951ea4f9b6a1577a5d1
18 Gimme Some Lovin'.flac:277b3553cc62c8e596f2d8c4e1b04d5f
19 The Wheel.flac:3ed67ec44d9593cbcbfbe9d7ac410405
20 Black Peter.flac:0fda344f5fd009e901cc6a4712e0b8ee
21 Around And Around.flac:202635bc3443a87ae3fb5532c388da06
22 Good Lovin'.flac:616a5d7b870800af6a3fe18dc430c1ac
23 Encore Break.flac:ec280f3bb2904282f66c59c4873edbcf
24 Black Muddy River.flac:96a474682e371c594bbbf8e7fe097ee2
flac-md5
8527ab4cbafed0f762651e5c9479467d *01 Tuning.flac
0b5363757f320d406ecd867647d9d0ee *02 Cold Rain And Snow.flac
0d78d6bf4efa14efb6838107cbeb982c *03 New Minglewood Blues.flac
a361c17217515687311b70cd7929f1d0 *04 Dupree's Diamond Blues.flac
1e169929a8b7e7360f3b0875c2659463 *05 Far From Me.flac
55425233fe5792c651ab17b0dcf3b56c *06 Me And My Uncle.flac
0c8f208ff0f3cf50eff8ee9452ea1d2a *07 Mexicali Blues.flac
13f685f547c724bb1fd827b6f4099a25 *08 When Push Comes To Shove.flac
101ded43058ecfa4effd87229f0552e2 *09 Beat It On Down The Line.flac
a3866d4202a4a84fea252a7d527b673e *10 Bird Song.flac
c39e1dc715432c7fc8f59ee7104aedab *11 The Music Never Stopped.flac
f786cf633d7313c23b41f2c4f86d8f74 *12 Scarlet Begonias.flac
e12c8c1eaff82edc4fb4650a675a8f94 *13 Fire On The Mountain.flac
9d6d7146d9d1a500d693a28d9d6bdc65 *14 Looks Like Rain.flac
5345e4434cb7bbb137272b561b94d6b9 *15 Eyes Of The World.flac
cbc69c90a60c6c2e3f6dda5c80bc8b0e *16 Drums.flac
e3fff137aff3e2ea89ba639e60b59728 *17 Space.flac
c510ddc7492c3a54d9d4ffd5f9546088 *18 Gimme Some Lovin'.flac
dcc15a607d1abda5e83a3c5a054d2afc *19 The Wheel.flac
c0a40dbd9c2aaafd6c0602b27fcf8300 *20 Black Peter.flac
ad6a79094f918e663251e14e97859805 *21 Around And Around.flac
90c9da1a8b44a713f1af6c7cdb1ee625 *22 Good Lovin'.flac
a5f181d21b1f8f168085a9cf4b3b6d8f *23 Encore Break.flac
476fac62ab39cda92deea31dd2280fa5 *24 Black Muddy River.flac

Comments
Add Comment
Other Sources (comments)
AUD>PCM>DAT>CDR; via... (0) flac16; Recording... (0) flac16; nak 300 mics... (0) flac16; Recording... (0) flac16; Nakamichi... (0) flac24; Master... (0) flac16; Master... (0) flac24; Recording... (0) flac24; source: nak... (1) flac16; source: nak... (2) flac16; Recording... (0) flac24; Recording... (0) flac16; Set 2 Source... (0)
Date User Comment