Browse Collections Artists Sources   Search Dates

Add Show    List Management    Help


Grateful Dead 04/03/87
The Centrum, Worcester, MA
Comments Add Comment    Source Collectors    Add to Collection    Add to Want List    History
Source # 140335 Other Sources
Entered by Matt Vernon
Checksums flac-md5 , ffp
Disc Counts 0 / 0
Media Size Compressed: 883.86 MB (926797824 bytes)
Date Circulated
Date Added
12/23/2017
12/23/2017
Source Summary flac16; Recording Info: UltraMatrix SBD > Cassette Master (TDK MA-R90); Transfer Info: Cassette Master (Nakamichi CR-7A) > Tascam DA-3000 (DSF 1-bit/5.8 MHz) > KORG AudioGate 4 > Samplitude Pro X3 Suite > FLAC/24; All Transfers and Mastering By Charlie Miller 
  Archive
Source Information - Download Text | Download Zip
Grateful Dead - April 3, 1987
The Centrum - Worcester, MA

Recording Info:
UltraMatrix SBD > Cassette Master (TDK MA-R90)

Transfer Info:
Cassette Master (Nakamichi CR-7A) > Tascam DA-3000 (DSF 1-bit/5.8 MHz) >
KORG AudioGate 4 > Samplitude Pro X3 Suite > FLAC/24
(1 Disc FLAC)

All Transfers and Mastering By Charlie Miller
[email protected]
December 19, 2017

Notes:
-- Two sets of masters were used to make this show complete
-- This file set is 16 bit

Set 1:
01 - Tuning
02 - Hell In A Bucket >
03 - Sugaree
04 - C C Rider
05 - It Must Have Been The Roses
06 - It's All Over Now
07 - Big Railroad Blues
08 - Let It Grow >
09 - Don't Ease Me In

Set 2:
10 - Tuning
11 - China Cat Sunflower >
12 - I Know You Rider
13 - Man Smart (Woman Smarter) >
14 - Crazy Fingers >
15 - Samson And Delilah >
16 - Drums >
17 - Space >
18 - The Other One >
19 - Wharf Rat >
20 - Throwing Stones >
21 - Not Fade Away

Encore:
22 - Encore Break
23 - U.S. Blues


SHNTOOL OUTPUT:
    length     expanded size    cdr  WAVE problems  fmt   ratio  filename
     2:31.21       26685836 B   ---   --   ---xx   flac  0.5597  01 Tuning.flac
     5:48.56       61518956 B   ---   --   ---xx   flac  0.6239  02 Hell In A Bucket.flac
     9:33.70      101241884 B   ---   --   ---xx   flac  0.5945  03 Sugaree.flac
     8:51.08       93687260 B   ---   --   ---xx   flac  0.6041  04 CC Rider.flac
     8:16.50       87612044 B   ---   --   ---xx   flac  0.5892  05 It Must Have Been The Roses.flac
     7:45.21       82075436 B   ---   --   ---xx   flac  0.6384  06 It's All Over Now.flac
     5:35.74       59268092 B   ---   --   ---xx   flac  0.6123  07 Big Railroad Blues.flac
    11:56.19      126347132 B   ---   --   ---xx   flac  0.6153  08 Let It Grow.flac
     3:43.55       39466604 B   ---   --   ---xx   flac  0.6380  09 Don't Ease Me In.flac
     0:35.60        6315164 B   ---   --   ---xx   flac  0.5385  10 Tuning.flac
     5:05.70       53966684 B   ---   --   ---xx   flac  0.6130  11 China Cat Sunflower.flac
     5:42.19       60373532 B   ---   --   ---xx   flac  0.6285  12 I Know You Rider.flac
     6:30.34       68876012 B   ---   --   ---xx   flac  0.6174  13 Man Smart (Woman Smarter).flac
     8:51.06       93682556 B   ---   --   ---xx   flac  0.6072  14 Crazy Fingers.flac
     6:35.60       69819164 B   ---   --   ---xx   flac  0.6361  15 Samson And Delilah.flac
     4:38.18       49081580 B   ---   --   ---xx   flac  0.5676  16 Drums.flac
     4:09.72       44092988 B   ---   --   ---xx   flac  0.5285  17 Space.flac
     6:34.46       69609836 B   ---   --   ---xx   flac  0.5988  18 The Other One.flac
     8:12.64       86939372 B   ---   --   ---xx   flac  0.5879  19 Wharf Rat.flac
     8:07.42       86005628 B   ---   --   ---xx   flac  0.6146  20 Throwing Stones.flac
     4:46.19       50495132 B   ---   --   ---xx   flac  0.6073  21 Not Fade Away.flac
     1:50.33       19481660 B   ---   --   ---xx   flac  0.5777  22 Encore Break.flac
     8:58.01       94905596 B   ---   --   ---xx   flac  0.5946  23 US Blues.flac
   144:42.18     1531548148 B                            0.6051  (23 files)




Show Checksums
flac-md5
7d1bea23d0076ed1471ba58fb94aefb1 *01 Tuning.flac
42644518121326bdb094e6d570736d2c *02 Hell In A Bucket.flac
0fdf4ae879707d16d7c923af7baf648d *03 Sugaree.flac
b405afdd19ad9b9259b0a820c2a70a77 *04 CC Rider.flac
b586d89ec430c800ebd6982edb1d6485 *05 It Must Have Been The Roses.flac
1242330dabf7da8133f00d12201e16e0 *06 It's All Over Now.flac
7ede3fee98d0c3d6e87c17383412b511 *07 Big Railroad Blues.flac
d591e370569fa73f1f794c638fb1587c *08 Let It Grow.flac
96f32129140fe0afd2b8ee0a0c59f410 *09 Don't Ease Me In.flac
a4e3a431d77af7c3271c3f7241435d98 *10 Tuning.flac
4e9fc367fe8d0ab6793850e0a4e4e3e3 *11 China Cat Sunflower.flac
f252b036393ff90b5632de214b742bd0 *12 I Know You Rider.flac
32edfc35c632905d32aac9c8167fccef *13 Man Smart (Woman Smarter).flac
65410c48f982147e692d08a8327dcf41 *14 Crazy Fingers.flac
3647a3f9535b4afb465df8ee91e8cdb6 *15 Samson And Delilah.flac
75dd624aeac9651b5d5a0e3912bbcefc *16 Drums.flac
d7cb3b65ab13cc0ea593635cce938c2a *17 Space.flac
9efdd829a188fb002acbc144a9c5e262 *18 The Other One.flac
a3cd055de9f7df8a1163bf1bfd678b2e *19 Wharf Rat.flac
4d08e74b31b3f79d9671af89088ee8ea *20 Throwing Stones.flac
e2f4f1a9f505b7496d7c96f0a84f1507 *21 Not Fade Away.flac
3db0b9a398743e7758071430cd7797bc *22 Encore Break.flac
925147bea8d13f4b51e03667199f3765 *23 US Blues.flac
ffp
01 Tuning.flac:b4da5b11f9c16d1112e80cd4c2d8f0a1
02 Hell In A Bucket.flac:905a15f67964cdee319218eb53bdbb89
03 Sugaree.flac:ecffddb5d1fa373b41f3131b99a626b6
04 CC Rider.flac:024607cd3ad56e7df4a26ed7b9f5388c
05 It Must Have Been The Roses.flac:84e8af7cb41f86dc9adb961782c768cb
06 It's All Over Now.flac:57961920c673cb4fcf664907ca603b26
07 Big Railroad Blues.flac:e0488814560f1ad7ccd31b0232425c1e
08 Let It Grow.flac:e680cef0fe6bd4c3418c9cf5c9f37775
09 Don't Ease Me In.flac:551de1aa15117d8fba21dde0163e06c7
10 Tuning.flac:a9e089c586061d477dd2f2cb90b0e133
11 China Cat Sunflower.flac:65e6ec673dc4bf1d82d69c72ef48c2da
12 I Know You Rider.flac:d010eca3bea163ccb3dd12442997e13e
13 Man Smart (Woman Smarter).flac:18a0fe7520cff2d23068597c8447db9a
14 Crazy Fingers.flac:1e189c7411f23656b020b9ed7898734e
15 Samson And Delilah.flac:2b2db3e7a182f81537b11b69cc584304
16 Drums.flac:aeb23d02c86e7e7e713e614f98397263
17 Space.flac:5f84956194961f7f27e68b1de962f017
18 The Other One.flac:f2c9e241d7b025015ce7008b25aa5c43
19 Wharf Rat.flac:0cbcc52edfed4c4265a4bdfc8f2c93a9
20 Throwing Stones.flac:0a836e3f55750c482e6b49abccbebc94
21 Not Fade Away.flac:7f012639e530da16d48adfa5368c1743
22 Encore Break.flac:9090b890e64d5846c168131e0722ea4a
23 US Blues.flac:bfb225be72307474127520d8b62e939c

Comments
Add Comment
Other Sources (comments)
2nd set only;... (0) Recording Info: Sennheiser... (0) flac16; taper : Joe... (0) flac16; Recording... (0) flac16; Recording... (0) flac16; Master... (0) flac24; Master... (0) flac24; Set 2... (2) flac24; Recording... (0) flac16; Recording... (0) flac24; Recording... (0) flac16; Set 2 Source... (0)
Date User Comment