Browse Collections Artists Sources   Search Dates

Add Show    List Management    Help


Grateful Dead 08/31/83
Silva Hall, Hult Center, Eugene, OR
Comments Add Comment    Source Collectors    Add to Collection    Add to Want List    History
Source # 140336 Other Sources
Entered by Matt Vernon
Checksums ffp , flac-md5
Disc Counts 0 / 0
Media Size
Date Circulated
Date Added
12/23/2017
12/23/2017
Source Summary flac16/48kHz; Recording Info: Master Soundboard Cassette -> Tascam MKIII 1st Gen Cassette -> Panasonic SV-3800 Dat 16/48; Transfer Info: Sony PCM-R500 16/48 -> Tascam DA-3000 16/48 > Adobe Audition 3.0 -> TLH flac1648 
  Archive
Source Information - Download Text | Download Zip
Grateful Dead
Silva Hall
Hult Center For The Performing Arts
Eugene, OR
Wednesday August 31, 1983

Recording Info:
Master Soundboard Cassette -> Tascam MKIII 1st Gen Cassette -> Panasonic SV-3800 Dat 16/48

Transfer Info:
Sony PCM-R500 16/48 -> Tascam DA-3000 16/48 > Adobe Audition 3.0 -> TLH flac1648

Notes:
- Thanks to Rob Eaton for the source Dat
- Thanks to Charlie Miller for the transfer
- First soundboard source for this date (Dec 2017)
- Thanks to the folks responsible for the shnid84934 Sennheiser 421 source which supplies a 0:23 patch in "Althea", a 0:56 patch in the transition out of the post space jam into "Truckin'", some crowd and the first few seconds of "Satisfaction" (0:14 total), as well as the final 0:51 of "Satisfaction"
- None of the patch sources were a particularly good match (all seem to be variations of the same source), did what I could
- Between song transitions smoothed
- Not really a "Space" segment per se, more of a thematic Jam
- Truckin' noodle included in "Truckin'"
- Mighty fine show, especially the 2nd set

Mastered by Scott Clugston
12/23/2017

Set 1:
01 - Alabama Getaway >
02 - Greatest Story Ever Told
03 - Dupree's Diamond Blues
04 - Me & My Uncle >
05 - Mexicali Blues
06 - West LA Fadeaway
07 - Hell In A Bucket
08 - Althea
09 - Cassidy
10 - Don't Ease Me In

Set 2:
11 - Cold Rain & Snow
12 - Playin' In The Band >
13 - China Doll >
      Jam >
14 - Drums >
15 - Space Jam >
16 - Truckin' >
17 - Stella Blue >
18 - Around & Around >
19 - Good Lovin'
Encore:
20 - US Blues
21 - Thank You's & Credits
22 - Satisfaction



    length     expanded size    cdr  WAVE problems  fmt   ratio  filename
     5:41.147      65500204 B   cxx   --   ---xx   flac  0.6128  gd83-08-31 01 Alabama Getaway.flac
     4:18.240      49582124 B   cxx   --   ---xx   flac  0.6033  gd83-08-31 02 Greatest Story Ever Told.flac
     7:11.853      82915884 B   cxx   --   ---xx   flac  0.6053  gd83-08-31 03 Dupree's Diamond Blues.flac
     3:06.093      35729964 B   cxx   --   ---xx   flac  0.6000  gd83-08-31 04 Me & My Uncle.flac
     5:08.960      59320364 B   cxx   --   ---xx   flac  0.6018  gd83-08-31 05 Mexicali Blues.flac
     9:47.053     112714284 B   cxx   --   ---xx   flac  0.5934  gd83-08-31 06 West LA Fadeaway.flac
     5:27.467      62873644 B   cxx   --   ---xx   flac  0.6165  gd83-08-31 07 Hell In A Bucket.flac
    10:00.947     115381804 B   cxx   --   ---xx   flac  0.5912  gd83-08-31 08 Althea.flac
     6:28.720      74634284 B   cxx   --   ---xx   flac  0.6136  gd83-08-31 09 Cassidy.flac
     3:17.773      37972524 B   cxx   --   ---xx   flac  0.6222  gd83-08-31 10 Don't Ease Me In.flac
     7:07.640      82106924 B   cxx   --   ---xx   flac  0.6013  gd83-08-31 11 Cold Rain & Snow.flac
    10:40.040     122887724 B   cxx   --   ---xx   flac  0.5925  gd83-08-31 12 Playin' In The Band.flac
    10:32.027     121349164 B   cxx   --   ---xx   flac  0.5892  gd83-08-31 13 China Doll.flac
     6:29.133      74713644 B   cxx   --   ---xx   flac  0.5629  gd83-08-31 14 Drums.flac
     5:33.160      63966764 B   cxx   --   ---xx   flac  0.5524  gd83-08-31 15 Space Jam.flac
    11:18.040     130183724 B   cxx   --   ---xx   flac  0.6002  gd83-08-31 16 Truckin'.flac
     9:29.893     109419564 B   cxx   --   ---xx   flac  0.5709  gd83-08-31 17 Stella Blue.flac
     3:51.893      44523564 B   cxx   --   ---xx   flac  0.6093  gd83-08-31 18 Around & Around.flac
     9:33.267     110067244 B   cxx   --   ---xx   flac  0.6126  gd83-08-31 19 Good Lovin'.flac
     5:23.627      62136364 B   cxx   --   ---xx   flac  0.6176  gd83-08-31 20 US Blues.flac
     3:17.000      37824044 B   cxx   --   ---xx   flac  0.5144  gd83-08-31 21 Thank You's & Credits.flac
     7:09.527      82469164 B   cxx   --   ---xx   flac  0.6334  gd83-08-31 22 Satisfaction.flac
   150:53.500    1738272968 B                            0.5965  (22 files)

No errors occured.


Show Checksums
ffp
gd83-08-31 01 Alabama Getaway.flac:9db85afcc82699791987f1fb5aad4a92
gd83-08-31 02 Greatest Story Ever Told.flac:7e13fe1ee6fa7a5a96a092d2ef383a83
gd83-08-31 03 Dupree's Diamond Blues.flac:83d694678dad69bb91b2ee419ce2b1b6
gd83-08-31 04 Me & My Uncle.flac:24ea3f73fea5a6fa0f2097086a9bfd9c
gd83-08-31 05 Mexicali Blues.flac:ef5d88f381089d68f849ab6429a1a9f6
gd83-08-31 06 West LA Fadeaway.flac:0b9f2190a327803797894203e152f688
gd83-08-31 07 Hell In A Bucket.flac:0564131b0ba62f80af130bbac5137217
gd83-08-31 08 Althea.flac:71db588ff35573460333450355d4ad72
gd83-08-31 09 Cassidy.flac:d27de49ef9e3d2f17ee4bde9c3e79e52
gd83-08-31 10 Don't Ease Me In.flac:6787da63b73728b650dac35ee092f922
gd83-08-31 11 Cold Rain & Snow.flac:c6648a3a7a376388ecd3d3317e5ac138
gd83-08-31 12 Playin' In The Band.flac:82ed5cb42eb9f95c6dd1c020835c0e6f
gd83-08-31 13 China Doll.flac:06cf3e1ef1fe0edc3df839fb64232961
gd83-08-31 14 Drums.flac:9c05e4c8519fc250acd4109479640b69
gd83-08-31 15 Space Jam.flac:a53c8797794e0caaa2c79483c089cfb9
gd83-08-31 16 Truckin'.flac:b2caf5730bcb26b1254083297035813e
gd83-08-31 17 Stella Blue.flac:a6969755e83290098c201c647e806824
gd83-08-31 18 Around & Around.flac:6f65c9478a151a916abfa733ba6bd882
gd83-08-31 19 Good Lovin'.flac:fb733c6b1f289ccc2c6b48f25534645a
gd83-08-31 20 US Blues.flac:cf32c2c10b24b45a0245208ae47b4381
gd83-08-31 21 Thank You's & Credits.flac:8000ca0e0e2969380d6d5b38d7ec2f40
gd83-08-31 22 Satisfaction.flac:a368e877bc373ba97d58cb9bfb892ffd
flac-md5
c561b14a6a02ef5e7990a501f8feacc9 *gd83-08-31 01 Alabama Getaway.flac
4bde2576c429be0109e1bd995836975e *gd83-08-31 02 Greatest Story Ever Told.flac
e7babf6e799dedb3fb4976f4711c334d *gd83-08-31 03 Dupree's Diamond Blues.flac
25fce9b7b18b9cadc02abb0410412823 *gd83-08-31 04 Me & My Uncle.flac
464f57850cac03d046cfb804d69fe756 *gd83-08-31 05 Mexicali Blues.flac
df30d181e00f80ebde3529610d8c3dae *gd83-08-31 06 West LA Fadeaway.flac
17cf579cabd55dd5a566387cf47ab46c *gd83-08-31 07 Hell In A Bucket.flac
4dce7f16c394403054e00741f1619c1c *gd83-08-31 08 Althea.flac
8fb6cb6d26c844b3d5c2303d7d3f3ff0 *gd83-08-31 09 Cassidy.flac
47d3ec084bd94134059fe4fdf6ebea2a *gd83-08-31 10 Don't Ease Me In.flac
ee2c568a1652e3e1eca4e53c239fed4f *gd83-08-31 11 Cold Rain & Snow.flac
a33af4a71d4c8dbc5551455e1ecc0f06 *gd83-08-31 12 Playin' In The Band.flac
5fa8d98513664017f45ac127bc458a72 *gd83-08-31 13 China Doll.flac
15a45b52a9f5979d0b14a3efe7f99b7c *gd83-08-31 14 Drums.flac
eaf7ceb4d0a870746347f28b49e17f93 *gd83-08-31 15 Space Jam.flac
af8ae5b60a3b549f69133e2f37c87de4 *gd83-08-31 16 Truckin'.flac
89793a4552949918f36e328caa5ac237 *gd83-08-31 17 Stella Blue.flac
edd9d17ac915b040793cae84ab1cad2b *gd83-08-31 18 Around & Around.flac
a39067e3f945a7a62db1c8cd17fd8f0b *gd83-08-31 19 Good Lovin'.flac
e8d8b43e32564d2cede8c8624f78977e *gd83-08-31 20 US Blues.flac
f6ffe3f859e9e4017c933fe5905c1f60 *gd83-08-31 21 Thank You's & Credits.flac
4e7457fd5fd546fe163b8ce251b91d1d *gd83-08-31 22 Satisfaction.flac

Comments
Add Comment
Other Sources (comments)
AUD (Senn. 421?s)> MC> DAT>... (1) flac16; Lineage: AUD... (0) flac16; AUD (Senn.... (0) flac16; Source: 2... (0) flac24; Source Info:... (0) flac16; Source Info:... (0) flac16/44.1 ... (0) flac24/48 Master:... (0)
Date User Comment