Browse Collections Artists Sources   Search Dates

Add Show    List Management    Help


Grateful Dead 04/07/87
Meadowlands Arena, East Rutherford, NJ
Comments Add Comment    Source Collectors    Add to Collection    Add to Want List    History
Source # 140340 Other Sources
Entered by Matt Vernon
Checksums ffp , flac-md5
Disc Counts 0 / 0
Media Size
Date Circulated
Date Added
12/23/2017
12/23/2017
Source Summary flac24; Recording Info: UltraMatrix SBD > Cassette Master (TDK MA-R90); Transfer Info: Cassette Master (Nakamichi CR-7A) > Tascam DA-3000 (DSF 1-bit/5.8 MHz) > KORG AudioGate 4 > Samplitude Pro X3 Suite > FLAC/24; All Transfers and Mastering By Charlie Miller 
  Archive
Source Information - Download Text | Download Zip
Grateful Dead - April 7, 1987
Meadowlands Arena - East Rutherford, NJ

Recording Info:
UltraMatrix SBD > Cassette Master (TDK MA-R90)

Transfer Info:
Cassette Master (Nakamichi CR-7A) > Tascam DA-3000 (DSF 1-bit/5.8 MHz) >
KORG AudioGate 4 > Samplitude Pro X3 Suite > FLAC/24
(1 Disc FLAC)

All Transfers and Mastering By Charlie Miller
[email protected]
December 23, 2017

Notes:
-- False start to Hell In A Bucket
-- Two sets of masters were used to make this show complete

Set 1:
01 - Tuning
02 - Touch Of Grey >
03 - New Minglewood Blues
04 - Friend Of The Devil
05 - Beat It On Down The Line
06 - Stagger Lee
07 - Mama Tried >
08 - Big River
09 - West L.A. Fadeaway
10 - Hell In A Bucket >
11 - Don't Ease Me In

Set 2:
12 - Tuning
13 - Box Of Rain
14 - I Need A Miracle >
15 - Bertha
16 - Ship Of Fools
17 - Man Smart (Woman Smarter) >
18 - Drums >
19 - Space >
20 - Gimme Some Lovin' >
21 - Morning Dew >
22 - Throwing Stones >
23 - Not Fade Away

Encore:
24 - Tuning
25 - The Mighty Quinn (Quinn The Eskimo)


SHNTOOL OUTPUT:
   length     expanded size    cdr  WAVE problems  fmt   ratio  filename
    1:37.735      56295284 B   cxx   --   ---xx   flac  0.6489  01 Tuning.flac
    6:09.352     212747060 B   cxx   --   ---xx   flac  0.6787  02 Touch Of Grey.flac
    7:36.832     263135162 B   cxx   --   ---xx   flac  0.6685  03 New Minglewood Blues.flac
   10:11.132     352012064 B   cxx   --   ---xx   flac  0.6726  04 Friend Of The Devil.flac
    3:25.968     118637408 B   cxx   --   ---xx   flac  0.6809  05 Beat It On Down The Line.flac
    7:07.895     246467822 B   cxx   --   ---xx   flac  0.6655  06 Stagger Lee.flac
    2:36.968      90413558 B   cxx   --   ---xx   flac  0.6765  07 Mama Tried.flac
    5:17.627     182953040 B   cxx   --   ---xx   flac  0.6829  08 Big River.flac
    8:46.621     303333872 B   cxx   --   ---xx   flac  0.6632  09 West LA Fadeaway.flac
    7:29.685     259018658 B   cxx   --   ---xx   flac  0.6754  10 Hell In A Bucket.flac
    4:02.393     139618124 B   cxx   --   ---xx   flac  0.6678  11 Don't Ease Me In.flac
    1:17.552      44669828 B   cxx   --   ---xx   flac  0.6627  12 Tuning.flac
    5:07.606     177181010 B   cxx   --   ---xx   flac  0.6921  13 Box Of Rain.flac
    3:15.628     112681688 B   cxx   --   ---xx   flac  0.6822  14 I Need A Miracle.flac
    6:19.439     218557088 B   cxx   --   ---xx   flac  0.6801  15 Bertha.flac
    9:26.720     326430842 B   cxx   --   ---xx   flac  0.6683  16 Ship Of Fools.flac
    7:11.062     248291810 B   cxx   --   ---xx   flac  0.6763  17 Man Smart (Woman Smarter).flac
   10:00.916     346127864 B   cxx   --   ---xx   flac  0.6518  18 Drums.flac
   11:08.538     385077992 B   cxx   --   ---xx   flac  0.6455  19 Space.flac
    4:49.231     166597010 B   cxx   --   ---xx   flac  0.6802  20 Gimme Some Lovin'.flac
   10:28.426     361973288 B   cxx   --   ---xx   flac  0.6758  21 Morning Dew.flac
    8:25.090     290932058 B   cxx   --   ---xx   flac  0.6736  22 Throwing Stones.flac
    5:08.284     177571688 B   cxx   --   ---xx   flac  0.6835  23 Not Fade Away.flac
    0:50.820      29272520 B   cxx   --   ---xx   flac  0.6611  24 Tuning.flac
    5:42.952     197540222 B   cxx   --   ---xx   flac  0.6757  25 The Mighty Quinn (Quinn The Eskimo).flac
  153:34.472    5307536960 B                            0.6707  (25 files)


Show Checksums
ffp
01 Tuning.flac:cb821c3c5cd60bf2a0ef3beeefcc0a94
02 Touch Of Grey.flac:5666f7849ecb86487704105779d7eacd
03 New Minglewood Blues.flac:cbb838c353e5e8656d6f7a295af0c349
04 Friend Of The Devil.flac:14dfeec61dabb2436d7f80dcfd9e2ce8
05 Beat It On Down The Line.flac:ceac7bc3cbab9a77b20fd48db20121ce
06 Stagger Lee.flac:7fb56fe6ba9155669de2f7c4b9590e07
07 Mama Tried.flac:3346c3d82d92b2dc0f127bbfd18dece8
08 Big River.flac:c0265a566a406c6fd7b58afdf92628c5
09 West LA Fadeaway.flac:a7d64ec1f90be603989273b49db7946b
10 Hell In A Bucket.flac:3470e22b70cb42e4516971b826bd4e51
11 Don't Ease Me In.flac:62b3729f314fe8f86089ea493c6e411f
12 Tuning.flac:c10de9bd4ff9ca555b9dcd9a869136e7
13 Box Of Rain.flac:1b7bbe19bbda016e5cfab015c2e5393d
14 I Need A Miracle.flac:8d61e9d7c25d26e341f4539be292cc05
15 Bertha.flac:a40940fdd3825d36e70b25c2021837d2
16 Ship Of Fools.flac:c120c8101c3d5e91e74bf6ddf6a91dd2
17 Man Smart (Woman Smarter).flac:7d004032c7948179225bbfa061aa6e7e
18 Drums.flac:0fad2211a0de782ea22896368d5243f5
19 Space.flac:6df002f44481066e7f11cb7aeab50834
20 Gimme Some Lovin'.flac:342efbcd6e2f84c51303bc5534ed4460
21 Morning Dew.flac:4bb362ab016de3f47d3f6a5d6fafb069
22 Throwing Stones.flac:0ce7be56b1788bcf8540c09a2a29371e
23 Not Fade Away.flac:9a3359d1eb7000fbf27e7c98a56ce41c
24 Tuning.flac:5c54909b886bfa0455f4de3a302aeb5c
25 The Mighty Quinn (Quinn The Eskimo).flac:dc1c95a510379ef97fb6e6736b7fb6d1
flac-md5
8ba234f56f800e6ee85068b0e53496d1 *01 Tuning.flac
d427bc668707c8d86cc8c8c11976e3f0 *02 Touch Of Grey.flac
6383d6b019b483924ef3dd4f40aab09d *03 New Minglewood Blues.flac
a7cb69301439a9cdd06fa4b6afa3f04a *04 Friend Of The Devil.flac
95d2b467eb9c3d9321f861bfb9764b45 *05 Beat It On Down The Line.flac
4576e049bf77a1b52d77dcba54317487 *06 Stagger Lee.flac
4cfc2db4b1fec1fd5f15a73783068740 *07 Mama Tried.flac
380b6fac42f3d3f60fefdc47d590dc35 *08 Big River.flac
61ad62f6d8177e1bd6ad9a548f911ffd *09 West LA Fadeaway.flac
28ea26ee51f0f6bbf8698f3915d417b8 *10 Hell In A Bucket.flac
db783aeeaf250c7327bf3ac426459e03 *11 Don't Ease Me In.flac
15a7def848bab96f5b601a99c0c323db *12 Tuning.flac
6fc4609e5d3c1c8c0dac37f7111282b6 *13 Box Of Rain.flac
8bd5715721b7d9af15170c8443077dd5 *14 I Need A Miracle.flac
de998ddaf3610ee7afa78c609116de23 *15 Bertha.flac
f12dda5e7201ad7563530db8d0915432 *16 Ship Of Fools.flac
00aaa63ac42b092431d571505475a6a3 *17 Man Smart (Woman Smarter).flac
bbb16433164d4f4a525fa6fafc0fd77e *18 Drums.flac
803e46176dddc5700c795e884f713343 *19 Space.flac
1c2fe429851062b66ee00646215fa3e8 *20 Gimme Some Lovin'.flac
d1fed62a4e5954f838fb50908776d4dc *21 Morning Dew.flac
d35686c220f9a99e19d3e16de8c50813 *22 Throwing Stones.flac
774c0fde9a99f71c469b60b38a49fee9 *23 Not Fade Away.flac
6b98f1a69fcbbc7e6ced2502e6a11bb1 *24 Tuning.flac
65c290816bb0b71334ad97e4278ba139 *25 The Mighty Quinn (Quinn The Eskimo).flac

Comments
Add Comment
Other Sources (comments)
AUD>MC>DAT>CDR; Schoeps... (0) Source:... (3) flac16; Source:... (0) flac16; taper : Joe... (0) flac16; Source:... (0) flac16; Nakamichi... (0) flac24; Source:... (0) flac24; Set 2... (0) flac16; Recording... (0)
Date User Comment