Browse Collections Artists Sources   Search Dates

Add Show    List Management    Help


Grateful Dead 07/13/89
Robert F. Kennedy Stadium, Washington, DC
Comments Add Comment    Source Collectors    Add to Collection    Add to Want List    History
Source # 140352 Other Sources
Entered by Matt Vernon
Checksums ffp , flac-md5
Disc Counts 0 / 0
Media Size
Date Circulated
Date Added
12/25/2017
12/25/2017
Source Summary flac24; Recording Info: Ultra Matrix SBD > Cassette Master (TDK MA-XG90); Transfer Info: Cassette Master (Nakamichi CR-7A) > Tascam DA-3000 (DSF 1-bit/5.8 MHz) > KORG AudioGate 4 > Adobe Audition CC 2015 > Samplitude Pro X3 Suite > FLAC/24; All Transfers and Mastering By Charlie Miller 
  Archive
Source Information - Download Text | Download Zip
Grateful Dead - July 13, 1989
RFK Stadium - Washington, DC

Recording Info:
Ultra Matrix SBD > Cassette Master (TDK MA-XG90)

Transfer Info:
Cassette Master (Nakamichi CR-7A) > Tascam DA-3000 (DSF 1-bit/5.8 MHz) >
KORG AudioGate 4 > Adobe Audition CC 2015 > Samplitude Pro X3 Suite > FLAC/24
(1 Disc FLAC)

All Transfers and Mastering By Charlie Miller
[email protected]
November 14, 2017

Notes:
-- Two sets of master were used to make this show complete
-- Tennessee Jed and Memphis Blues with Bruce Hornsby on the Accordion

Set 1:
01 - Tuning
02 - Hell In A Bucket
03 - Cold Rain And Snow
04 - Little Red Rooster
05 - Tennessee Jed
06 - Stuck Inside Of Mobile With The Memphis Blues Again
07 - To Lay Me Down
08 - Let It Grow

Set 2:
09 - He's Gone >
10 - Looks Like Rain >
11 - Terrapin Station >
12 - Drums >
13 - Space >
14 - I Will Take You Home >
15 - The Other One >
16 - Wharf Rat >
17 - Throwing Stones >
18 - Good Lovin'

Encore:
19 - Encore Break
20 - U.S. Blues


SHNTOOL OUTPUT:
   length     expanded size    cdr  WAVE problems  fmt   ratio  filename
    2:40.409      92395670 B   cxx   --   ---xx   flac  0.6506  01 Tuning.flac
    8:19.902     287943632 B   cxx   --   ---xx   flac  0.6817  02 Hell In A Bucket.flac
    6:33.043     226393064 B   cxx   --   ---xx   flac  0.6907  03 Cold Rain And Snow.flac
    9:37.767     332793872 B   cxx   --   ---xx   flac  0.6804  04 Little Red Rooster.flac
    8:38.442     298622420 B   cxx   --   ---xx   flac  0.6833  05 Tennessee Jed.flac
   10:26.709     360984626 B   cxx   --   ---xx   flac  0.6801  06 Stuck Inside Of Mobile With The Memphis Blues Again.flac
    9:21.545     323449874 B   cxx   --   ---xx   flac  0.6678  07 To Lay Me Down.flac
   12:55.375     446616272 B   cxx   --   ---xx   flac  0.6800  08 Let It Grow.flac
   10:24.649     359798084 B   cxx   --   ---xx   flac  0.6736  09 He's Gone.flac
    9:18.336     321601850 B   cxx   --   ---xx   flac  0.6783  10 Looks Like Rain.flac
   13:25.089     463731518 B   cxx   --   ---xx   flac  0.6783  11 Terrapin Station.flac
    8:21.902     289095758 B   cxx   --   ---xx   flac  0.6481  12 Drums.flac
    8:44.123     301894904 B   cxx   --   ---xx   flac  0.6445  13 Space.flac
    4:11.192     144686756 B   cxx   --   ---xx   flac  0.6377  14 I Will Take You Home.flac
   10:34.937     365723522 B   cxx   --   ---xx   flac  0.6621  15 The Other One.flac
   11:01.074     380778626 B   cxx   --   ---xx   flac  0.6709  16 Wharf Rat.flac
    9:44.030     336401336 B   cxx   --   ---xx   flac  0.6728  17 Throwing Stones.flac
    7:52.953     272421032 B   cxx   --   ---xx   flac  0.6766  18 Good Lovin'.flac
    1:42.418      58992848 B   cxx   --   ---xx   flac  0.6371  19 Encore Break.flac
    9:25.849     325929326 B   cxx   --   ---xx   flac  0.6630  20 US Blues.flac
  173:19.747    5990254990 B                            0.6710  (20 files)


Show Checksums
ffp
01 Tuning.flac:b87653b4bc461c08d36ad4bf5b7e77eb
02 Hell In A Bucket.flac:706e0007df251ed160b6f518800f8cae
03 Cold Rain And Snow.flac:36cce61b09d738891a897769f5bda865
04 Little Red Rooster.flac:7ce652da45b24f74d7924de9fe0d8a28
05 Tennessee Jed.flac:5b3c5883fda5d23d078a123277d77e1f
06 Stuck Inside Of Mobile With The Memphis Blues Again.flac:2d2b7f62103138b153b4040a40b32a89
07 To Lay Me Down.flac:bd6de26d3e9b29f0789978b7c4817f50
08 Let It Grow.flac:9084df3be3303ac51b0e0037082efdb2
09 He's Gone.flac:93fb8541326834b685ed6a33906eab9a
10 Looks Like Rain.flac:338947a4910dfcc71460ad82743b24f3
11 Terrapin Station.flac:665baae6772ca97b40e05507d42732a1
12 Drums.flac:f498db37f73ccdab107ecacc1054ef80
13 Space.flac:cefc80b75a831839f01c6d049b328c7d
14 I Will Take You Home.flac:9831c8b6e1652ac6facd457a3a15366b
15 The Other One.flac:cfd238e82c564b951615243ecc6fa34f
16 Wharf Rat.flac:46785e3de228646696ca8b8ab631deb6
17 Throwing Stones.flac:9b23bd0d93c3a25aef4f73c0bca4095f
18 Good Lovin'.flac:3c7268bee9be366415edcfc15eb9d0d9
19 Encore Break.flac:23485fba39f4c562bdabe4d1ed49ad6d
20 US Blues.flac:430496d65738d0aa50be673d1d95fb51
flac-md5
d9826186a286fdff75b536aa496f1350 *01 Tuning.flac
69dad5a8919ea9c9113bfc93c282e65b *02 Hell In A Bucket.flac
41f41393568e48e940bee35d0bbdaa09 *03 Cold Rain And Snow.flac
ea2fde84c5a059b8976436f5d4557ffd *04 Little Red Rooster.flac
8a3c53a6dbd677b8b2877e462f77de7c *05 Tennessee Jed.flac
5ef46d4de6829be74c79f994165884af *06 Stuck Inside Of Mobile With The Memphis Blues Again.flac
a28713d90e22599d674dc01ac786e419 *07 To Lay Me Down.flac
5e2262013c83a5cdd52a279c35656b8a *08 Let It Grow.flac
e1c0c7a4e26a2be1103c8ff976c85394 *09 He's Gone.flac
1e86a1fdfcf0effac96ad4fb56531a17 *10 Looks Like Rain.flac
0f7a0139117e3a1966a3fb3c41f67e85 *11 Terrapin Station.flac
0352ed171cdcca69aa6e0b1f74c71ba8 *12 Drums.flac
f9d376aeccf28818cc99208dcd2209d8 *13 Space.flac
629ff9ffb0298d0cca04b17925dfbbfc *14 I Will Take You Home.flac
dbddd8dda33a9d818153b44edc493f1c *15 The Other One.flac
c4ddd30ead26d12923682e34a395e624 *16 Wharf Rat.flac
d39ba8fccc7894cd8732a010487232b1 *17 Throwing Stones.flac
430fbed98141394fdf281b7c19d0118a *18 Good Lovin'.flac
6f6c09297adc2d4bf1d11a02760e4617 *19 Encore Break.flac
ad04b7dd574cace8e520a137ebc1966a *20 US Blues.flac

Comments
Add Comment
Other Sources (comments)
(Schoeps)AUD>PCM>DAT>CDR;... (1) flac16; NAK-100s >... (0) flac16; Set 1 &... (0) flac24; Master... (0) flac16; Master... (0) flac16; Source: AKG... (0) flac16; Matrix 3... (0) DTS-Audio-CD 5.1... (0) flac16/48kHz; 5.1... (0) flac16; Recording... (0) flac24/96 Source... (0)
Date User Comment