Browse Collections Artists Sources   Search Dates

Add Show    List Management    Help


Grateful Dead 10/18/83
Cumberland County Civic Center, Portland, ME
Comments Add Comment    Source Collectors    Add to Collection    Add to Want List    History
Source # 140356 Other Sources
Entered by Matt Vernon
Checksums flac-md5 , ffp
Disc Counts 0 / 0
Media Size
Date Circulated
Date Added
12/25/2017
12/25/2017
Source Summary flac1648; Master Soundboard Cassette -> Technics Reel to Reel -> Panasonic SV-3800 Dat 16/48; Transfer Info: Sony PCM-R500 16/48 -> Tascam DA-3000 16/48 > Adobe Audition 3.0 -> TLH flac1648 
  Archive
Source Information - Download Text | Download Zip
Grateful Dead
Cumberland County Civic Center
Portland, ME
Tuesday October 18, 1983

Recording Info:
Master Soundboard Cassette -> Technics Reel to Reel -> Panasonic SV-3800 Dat 16/48

Transfer Info:
Sony PCM-R500 16/48 -> Tascam DA-3000 16/48 > Adobe Audition 3.0 -> TLH flac1648

Notes:
- Thanks to Rob Eaton for the source Dat
- Thanks to Charlie Miller for the transfer
- First soundboard source for this date (Dec 2017)
- Removed numerous clicks & pops, I hope I got 'em all
- Pretty unique "Space"
- Thanks to the folks responsible for the shnid91344 Sennheiser 441/Neumann U-87 blend source which supplies a 0:22 patch in "Not Fade Away"
- Not Fade Away space included in "Not Fade Away"

Mastered by Scott Clugston
12/24/2017

Set 1:
01 - Jack Straw
02 - They Love Each Other
03 - Me & My Uncle >
04 - Mexicali Blues
05 - Dupree's Diamond Blues
06 - CC Rider
07 - Althea
08 - Lazy Lightning >
09 - Supplication
10 - Might as Well

Set 2:
11 - China Cat Sunflower >
12 - I Know You Rider
13 - Estimated Prophet >
14 - He's Gone >
15 - Drums >
16 - Space >
17 - Not Fade Away >
18 - Black Peter >
19 - Around & Around >
20 - Sugar Magnolia
Encore:
21 - US Blues




    length     expanded size    cdr  WAVE problems  fmt   ratio  filename
     7:06.027      81797164 B   cxx   --   ---xx   flac  0.6228  gd83-10-18 01 Jack Straw.flac
     8:48.733     101516844 B   cxx   --   ---xx   flac  0.5942  gd83-10-18 02 They Love Each Other.flac
     2:57.733      34124844 B   cxx   --   ---xx   flac  0.6283  gd83-10-18 03 Me & My Uncle.flac
     5:46.147      66460204 B   cxx   --   ---xx   flac  0.6252  gd83-10-18 04 Mexicali Blues.flac
     6:14.467      71897644 B   cxx   --   ---xx   flac  0.6168  gd83-10-18 05 Dupree's Diamond Blues.flac
     9:18.320     107197484 B   cxx   --   ---xx   flac  0.6117  gd83-10-18 06 CC Rider.flac
     9:48.507     112993324 B   cxx   --   ---xx   flac  0.5691  gd83-10-18 07 Althea.flac
     3:47.667      43712044 B   cxx   --   ---xx   flac  0.5902  gd83-10-18 08 Lazy Lightning.flac
     8:01.053      92362284 B   cxx   --   ---xx   flac  0.5924  gd83-10-18 09 Supplication.flac
     4:23.773      50644524 B   cxx   --   ---xx   flac  0.6180  gd83-10-18 10 Might as Well.flac
     7:40.080      88335404 B   cxx   --   ---xx   flac  0.5932  gd83-10-18 11 China Cat Sunflower.flac
     6:51.453      78999084 B   cxx   --   ---xx   flac  0.5986  gd83-10-18 12 I Know You Rider.flac
    11:52.520     136803884 B   cxx   --   ---xx   flac  0.6221  gd83-10-18 13 Estimated Prophet.flac
     9:31.920     109808684 B   cxx   --   ---xx   flac  0.6031  gd83-10-18 14 He's Gone.flac
    10:21.800     119385644 B   cxx   --   ---xx   flac  0.5966  gd83-10-18 15 Drums.flac
     9:32.240     109870124 B   cxx   --   ---xx   flac  0.5571  gd83-10-18 16 Space.flac
     9:26.293     108728364 B   cxx   --   ---xx   flac  0.5989  gd83-10-18 17 Not Fade Away.flac
     8:22.947      96565804 B   cxx   --   ---xx   flac  0.5638  gd83-10-18 18 Black Peter.flac
     3:42.480      42716204 B   cxx   --   ---xx   flac  0.5942  gd83-10-18 19 Around & Around.flac
    10:13.733     117836844 B   cxx   --   ---xx   flac  0.5911  gd83-10-18 20 Sugar Magnolia.flac
     5:18.012      61058444 B   cxx   --   ---xx   flac  0.5923  gd83-10-18 21 US Blues.flac
   159:05.906    1832814844 B                            0.5972  (21 files)

No errors occured.









Show Checksums
flac-md5
052973d9eb56516ee441a86b6a58ef04 *gd83-10-18 01 Jack Straw.flac
7bf83826924a31d90624cda823544f73 *gd83-10-18 02 They Love Each Other.flac
1ff9007bc9b82de9da9a5b3e0c24a211 *gd83-10-18 03 Me & My Uncle.flac
9d8ae41ad056d0db6212610cadf1c7a3 *gd83-10-18 04 Mexicali Blues.flac
e2118273d95ee839a70e589366d7b1e0 *gd83-10-18 05 Dupree's Diamond Blues.flac
23ceed9f6b01558b4a482da9d73592d1 *gd83-10-18 06 CC Rider.flac
75f3e49cb7908ac8c83b50a63f081399 *gd83-10-18 07 Althea.flac
822deb826766a49b82ddeb766394d587 *gd83-10-18 08 Lazy Lightning.flac
ea384596bffca640663369d96cb94118 *gd83-10-18 09 Supplication.flac
83eb04cb2f29e18245b1a44eb37aab24 *gd83-10-18 10 Might as Well.flac
6b788f3ca8224e0c4154f9e375832743 *gd83-10-18 11 China Cat Sunflower.flac
eac3da3b2c79ce074cac16f1ef8bcc3e *gd83-10-18 12 I Know You Rider.flac
8e81e9ab12390924d188f3a563237ccf *gd83-10-18 13 Estimated Prophet.flac
fa96ca7b966869b4b053bbed961d24f5 *gd83-10-18 14 He's Gone.flac
af80673ea58db1edfd19080f954065e6 *gd83-10-18 15 Drums.flac
d820130481471d6a2ae577da0a638b83 *gd83-10-18 16 Space.flac
756eeed5b1f791a8f472c3796408fbb1 *gd83-10-18 17 Not Fade Away.flac
d6fdb39f7fca47143e4bf48844584443 *gd83-10-18 18 Black Peter.flac
70f455e23471cc89f7c5daa2f08b2087 *gd83-10-18 19 Around & Around.flac
4a51fb5f8b4c9ad4326d7564e96d58d4 *gd83-10-18 20 Sugar Magnolia.flac
ec30cc8acf985d7940461113ebb7b9ef *gd83-10-18 21 US Blues.flac
ffp
gd83-10-18 01 Jack Straw.flac:79e72022c276e144603afcb9e055517c
gd83-10-18 02 They Love Each Other.flac:fa2a74f37639f50e96424fb61109bef2
gd83-10-18 03 Me & My Uncle.flac:baf7840c5eaa363a71e06975b6fa7c8b
gd83-10-18 04 Mexicali Blues.flac:a1436c616a4fe7c486aedf0a87a17868
gd83-10-18 05 Dupree's Diamond Blues.flac:d5270366091565761c0b8df588f9a2fb
gd83-10-18 06 CC Rider.flac:a3b37981ffc025da764817a6ab49f05c
gd83-10-18 07 Althea.flac:0ff994bc0bba1285db2416c17f1e620e
gd83-10-18 08 Lazy Lightning.flac:632d838d393f1b2c59ec7468480f6c1d
gd83-10-18 09 Supplication.flac:4def0107ac3543927a53b841258ca61a
gd83-10-18 10 Might as Well.flac:3639dda5bf57fbfc7d0921917006b2c8
gd83-10-18 11 China Cat Sunflower.flac:e21a5c30b5d5da084ce2f74bde02be43
gd83-10-18 12 I Know You Rider.flac:0ae1bb473559fea475e282187ae36e51
gd83-10-18 13 Estimated Prophet.flac:45c1b7c1cb8582178f0abd8a7886cc66
gd83-10-18 14 He's Gone.flac:341eac2859fb841a208b4766695db553
gd83-10-18 15 Drums.flac:5c2d2f2b6c01c3fc89469bc71ced9871
gd83-10-18 16 Space.flac:b9f166d235a67d3f77d28c80b85ac3ea
gd83-10-18 17 Not Fade Away.flac:21fb2609aa943f5537cba2ba970e9e0e
gd83-10-18 18 Black Peter.flac:d82d7ec8903a4196777c809ffe3dcbd1
gd83-10-18 19 Around & Around.flac:ede51d647f4e8607c9dbbd97fd9e0661
gd83-10-18 20 Sugar Magnolia.flac:1831f9f9e60d648890dc2379ecf64816
gd83-10-18 21 US Blues.flac:860287126fa9da397228aa059fbfa07b

Comments
Add Comment
Other Sources (comments)
FOB-AUD> MC> CDR; via Paul... (0) flac16; Set One... (0) flac16; Recording... (0) flac16; (FOB)... (0) flac16; Lineage:... (0) flac24; (FOB)... (0) flac16; Source: 2... (0) flac16; 3 - Nak... (0) flac24; lineage:... (0) flac16; Master... (0) flac24; Master... (0) flac24; Recording... (0) flac16; Recording... (0)
Date User Comment