Browse Collections Artists Sources   Search Dates

Add Show    List Management    Help


Grateful Dead 02/26/81
Uptown Theater, Chicago, IL
Comments Add Comment    Source Collectors    Add to Collection    Add to Want List    History
Source # 140360 Other Sources
Entered by Matt Vernon
Checksums flac-md5 , ffp
Disc Counts 0 / 0
Media Size
Date Circulated
Date Added
12/25/2017
12/25/2017
Source Summary flac16; Master Soundboard Cassette > Technics Reel To Reel > Panasonic SV-3800 Dat 16/44; Transfer Info: Sony PCM-R500 > Tascam DA-3000 > Adobe Audition 3.0 > TLH flac16 
  Archive
Source Information - Download Text | Download Zip
Grateful Dead
Uptown Theatre
Chicago, IL
Thursday February 26, 1981

Recording Info:
Master Soundboard Cassette > Technics Reel To Reel > Panasonic SV-3800 Dat 16/44

Transfer Info:
Sony PCM-R500 > Tascam DA-3000 > Adobe Audition 3.0 > TLH flac16

Notes:
- Thanks to Rob Eaton for the source Dat
- Thanks to Charlie Miller for the transfer
- First verifiable lineage in general circulation
- No noise reduction has been used in this transcription
- Thanks to the folks responsible for the shnid4597 soundboard source which supplies a 0:02 patch in "Bird Song"
- Thanks to the folks responsible for the shnid20342 Nakamichi CM700 source which supplies an 0:11 patch in the Jam out of "He's Gone", as well as a 0:09 patch in the transition from "Black Peter" into "Goin' Down The Road Feeling Bad"
- Mix fluctuations until about half way thru "Althea"
- No space per se, a 1:40 noodle into "Truckin'"
- Noodle into Truckin' included in "Truckin'"
- Between song transitions smoothed

Mastered by Scott Clugston
12/23/2017

Set 1:
01 - Feel Like A Stranger
02 - Althea >
03 - Little Red Rooster
04 - Bird Song
05 - Me & My Uncle >
06 - Big River
07 - Peggy O
08 - Passenger
09 - Tennessee Jed
10 - The Music Never Stopped

Set 2:
11 - China Cat Sunflower >
12 - I Know You Rider
13 - Samson & Delilah
14 - He's Gone >
      Jam >
15 - Drums >
16 - Truckin' >
17 - Black Peter >
18 - Goin' Down the Road Feeling Bad >
19 - Johnny B. Goode
Encore:
20 - US Blues



    length     expanded size    cdr  WAVE problems  fmt   ratio  filename
     9:19.51       98727596 B   ---   --   ---xx   flac  0.5954  gd81-02-26 01 Feel Like A Stranger.flac
     8:30.40       90058124 B   ---   --   ---xx   flac  0.5801  gd81-02-26 02 Althea.flac
     9:15.49       98017292 B   ---   --   ---xx   flac  0.6158  gd81-02-26 03 Little Red Rooster.flac
    10:44.62      113747468 B   ---   --   ---xx   flac  0.5984  gd81-02-26 04 Bird Song.flac
     2:57.33       31300460 B   ---   --   ---xx   flac  0.5942  gd81-02-26 05 Me & My Uncle.flac
     5:52.26       62153996 B   ---   --   ---xx   flac  0.6241  gd81-02-26 06 Big River.flac
     7:33.52       80031548 B   ---   --   ---xx   flac  0.5383  gd81-02-26 07 Peggy O.flac
     5:01.17       53136428 B   ---   --   ---xx   flac  0.6457  gd81-02-26 08 Passenger.flac
     8:30.73       90135740 B   ---   --   ---xx   flac  0.5762  gd81-02-26 09 Tennessee Jed.flac
     8:11.25       86671244 B   ---   --   ---xx   flac  0.6280  gd81-02-26 10 The Music Never Stopped.flac
     6:40.14       70592972 B   ---   --   ---xx   flac  0.5913  gd81-02-26 11 China Cat Sunflower.flac
     6:44.68       71425580 B   ---   --   ---xx   flac  0.6390  gd81-02-26 12 I Know You Rider.flac
     7:20.10       77639564 B   ---   --   ---xx   flac  0.6373  gd81-02-26 13 Samson & Delilah.flac
    23:19.71      246950636 B   ---   --   ---xx   flac  0.5795  gd81-02-26 14 He's Gone.flac
    12:36.02      133363148 B   ---   --   ---xx   flac  0.5089  gd81-02-26 15 Drums.flac
     9:20.25       98842844 B   ---   --   ---xx   flac  0.6065  gd81-02-26 16 Truckin'.flac
     9:24.32       99564908 B   ---   --   ---xx   flac  0.5469  gd81-02-26 17 Black Peter.flac
     7:37.11       80640716 B   ---   --   ---xx   flac  0.6126  gd81-02-26 18 Goin' Down The Road Feeling Bad.flac
     4:33.33       48234860 B   ---   --   ---xx   flac  0.6277  gd81-02-26 19 Johnny B. Goode.flac
     5:22.47       56911388 B   ---   --   ---xx   flac  0.6275  gd81-02-26 20 US Blues.flac
   168:56.66     1788146512 B                            0.5918  (20 files)

No errors occured.




Show Checksums
flac-md5
faf493b5f4070a5e7041b80879234668 *gd81-02-26 01 Feel Like A Stranger.flac
a2a66ebf946486d6c479dc0cf2a63612 *gd81-02-26 02 Althea.flac
36b84f2450c9efc7e949ba0a60397266 *gd81-02-26 03 Little Red Rooster.flac
92bca9964420994864fb7b378d340651 *gd81-02-26 04 Bird Song.flac
12dee0301e02da1f22a4ed9d1d91d97c *gd81-02-26 05 Me & My Uncle.flac
c80f8c801de1dc1060497dca32559ca7 *gd81-02-26 06 Big River.flac
796557868b319abddd74872aaf4b01af *gd81-02-26 07 Peggy O.flac
5b666845c758f058356258fa1fd2a345 *gd81-02-26 08 Passenger.flac
be2883ef5a9eec9c7713937eaf6ce9a6 *gd81-02-26 09 Tennessee Jed.flac
3121fbc9f8aa390ca5d0b9aaabc90d65 *gd81-02-26 10 The Music Never Stopped.flac
aa6f53927325e7406b4d25c0ffb65f60 *gd81-02-26 11 China Cat Sunflower.flac
bd1019526d7bfae062e0e8ff12e7f379 *gd81-02-26 12 I Know You Rider.flac
4cb540b6e1614afc68c98f24e93fe8ff *gd81-02-26 13 Samson & Delilah.flac
16726121b1ddd55e68ba28664319d00a *gd81-02-26 14 He's Gone.flac
a6fbd1a01e281b2940213406d5455995 *gd81-02-26 15 Drums.flac
922136a840dc66fa03662c8adad3581c *gd81-02-26 16 Truckin'.flac
6b714ee4bb0dab520e7fae40727e330f *gd81-02-26 17 Black Peter.flac
2352f0542020a5c13f9fa33a79261fc2 *gd81-02-26 18 Goin' Down The Road Feeling Bad.flac
f0f1b84b345e7d18b3fe36850f059336 *gd81-02-26 19 Johnny B. Goode.flac
23d3cd2348b0f8c15d408422a2e092df *gd81-02-26 20 US Blues.flac
ffp
gd81-02-26 01 Feel Like A Stranger.flac:89e316fd0ab0fe73ecccfac9a372532b
gd81-02-26 02 Althea.flac:66342dd49884e42e9e1080658db9eca6
gd81-02-26 03 Little Red Rooster.flac:bb302ce39dc22326fabeb7d31086f420
gd81-02-26 04 Bird Song.flac:6eb11df706bad84319c72dcc8775966c
gd81-02-26 05 Me & My Uncle.flac:55678050310b682c7eb52cb71774db65
gd81-02-26 06 Big River.flac:f933fce9da7b332e6a30bdc3e83215b3
gd81-02-26 07 Peggy O.flac:066dd9f4cea95f67a593c829b1b90dc1
gd81-02-26 08 Passenger.flac:6ccd24a68378c1a0a767861535541233
gd81-02-26 09 Tennessee Jed.flac:bb8c40737a5d9e51f8d5e4edcfb6e203
gd81-02-26 10 The Music Never Stopped.flac:0108c75154713f878fa4f69f6c4fede0
gd81-02-26 11 China Cat Sunflower.flac:48d5b4be2a0e75a0f6e31a51f0154c43
gd81-02-26 12 I Know You Rider.flac:60a09f95b7ef6ce5e0e07ba99d1082ca
gd81-02-26 13 Samson & Delilah.flac:9d44534aa38a6aa53d662ba2a6fc5ffb
gd81-02-26 14 He's Gone.flac:f50aafa359b11aaf0090b69db19653dd
gd81-02-26 15 Drums.flac:57e9e0435ac67a5ca84982404c511f12
gd81-02-26 16 Truckin'.flac:0e131af75b9cc88452bf7eaf92949722
gd81-02-26 17 Black Peter.flac:230817acc1e96e18cadd20408ea4d352
gd81-02-26 18 Goin' Down The Road Feeling Bad.flac:1a87ec6e45b44049a04b3ba964afd2a4
gd81-02-26 19 Johnny B. Goode.flac:b2ecdc68e0b66aeb3976ae47d221a8ae
gd81-02-26 20 US Blues.flac:d01571be421a7358114c90a0cf421e01

Comments
Add Comment
Other Sources (comments)
SBD > Cassette master >... (5) Taped by Barry Glassberg:... (0) flac16; SBD/AUD... (1) flac16; Recorded By... (0)
Date User Comment
03/12/2018 [email protected] This is a cassette master. There is no reel gen.
06/25/2018 [email protected] The Dat from Rob Eaton was:
SBD > Cassette Master > Dat (Panasonic SV-3700/48k) > CD > Dat (Sony PCM-R700/44.1k)