Browse Collections Artists Sources   Search Dates

Add Show    List Management    Help


Grateful Dead 05/14/83
Greek Theatre, U. Of California, Berkeley, CA
Comments Add Comment    Source Collectors    Add to Collection    Add to Want List    History
Source # 140368 Other Sources
Entered by Matt Vernon
Checksums ffp , flac-md5
Disc Counts 0 / 0
Media Size
Date Circulated
Date Added
12/27/2017
12/27/2017
Source Summary flac16/48kHz; Recording Info: 1st Set: Master Soundboard Cassette > Technics Reel To Reel > Panasonic SV-3800 Dat 16/48; 2nd Set: Unknown Audience Master; possibly recorded at the soundboard by a crew member, presumably, this is what is in the vault for this date; Transfer Info: Sony PCM-R500 16/48 -> Tascam DA-3000 16/48 > Adobe Audition 3.0 -> TLH flac1648 
  Archive
Source Information - Download Text | Download Zip
Grateful Dead
Greek Theatre
University Of California
Berkeley, CA
Saturday May 14, 1983

Recording Info:
1st Set: Master Soundboard Cassette > Technics Reel To Reel > Panasonic SV-3800 Dat 16/48

2nd Set: Unknown Audience Master; possibly recorded at the soundboard by a crew member, presumably, this is what is in the vault for this date

Transfer Info:
Sony PCM-R500 16/48 -> Tascam DA-3000 16/48 > Adobe Audition 3.0 -> TLH flac1648

Notes:
- Thanks to Rob Eaton for the source Dat
- Thanks to Charlie Miller for the transfer
- According to Rob's list, the entire show is MSC>RR, his Dat begs to differ (1st set sbd/2nd set audience)
- Clean "Feel Like A Stranger" - copies in general circulation are missing the tuning and first 1:29
- Noodle into "Bertha" starts as a soundboard, Jerry hits a sour note and a few seconds later, the soundboard cuts until the first verse
- Thanks to the folks responsible for shnid94396 Sony ECM220t source which supplies a 0:05 patch in the beginning of "Bertha", a 0:11 patch in "Drums", as well as a 0:06 patch in "Sugar Magnolia"
- Weir stays on stage and jams with the drummers after "Playin' In The Band"
- Wheel space included in "The Wheel"
- "At this time, we've selected for everyone, a couple of fine shoot 'em up polkas"

Mastered by Scott Clugston
12/27/2017

Set 1:
01 - Crowd/Tuning
02 - Feel Like A Stranger
03 - Friend Of The Devil
04 - Me & My Uncle >
05 - Mexicali Blues
06 - "Happy Birthday Billy"
07 - Tennessee Jed
08 - My Brother Esau
09 - Bertha

Set 2:
10 - Shakedown Street
11 - Playin' In The Band >
12 - China Doll >
13 - Drums >
14 - Space >
15 - The Wheel >
16 - Playin' In The Band Reprise >
17 - Morning Dew >
18 - Sugar Magnolia
Encore:
19 - One More Saturday Night



    length     expanded size    cdr  WAVE problems  fmt   ratio  filename
     0:13.760       2641964 B   cxx   --   ---xx   flac  0.5475  gd83-05-14 01 Tuning.flac
     8:33.480      98588204 B   cxx   --   ---xx   flac  0.6434  gd83-05-14 02 Feel Like A Stranger.flac
    10:07.413     116623404 B   cxx   --   ---xx   flac  0.6169  gd83-05-14 03 Friend Of The Devil.flac
     3:21.107      38612524 B   cxx   --   ---xx   flac  0.6300  gd83-05-14 04 Me & My Uncle.flac
     5:29.027      63173164 B   cxx   --   ---xx   flac  0.6317  gd83-05-14 05 Mexicali Blues.flac
     1:05.373      12551724 B   cxx   --   ---xx   flac  0.5541  gd83-05-14 06 Happy Birthday Billy.flac
     8:18.653      95741484 B   cxx   --   ---xx   flac  0.6265  gd83-05-14 07 Tennessee Jed.flac
     5:30.427      63441964 B   cxx   --   ---xx   flac  0.6128  gd83-05-14 08 My Brother Esau.flac
     6:40.973      76986924 B   cxx   --   ---xx   flac  0.5952  gd83-05-14 09 Bertha.flac
    13:04.747     150671404 B   cxx   --   ---xx   flac  0.6030  gd83-05-14 10 Shakedown Street.flac
    12:54.267     148659244 B   cxx   --   ---xx   flac  0.6112  gd83-05-14 11 Playin' In The Band.flac
    11:20.773     130708524 B   cxx   --   ---xx   flac  0.6027  gd83-05-14 12 China Doll.flac
     6:34.693      75781164 B   cxx   --   ---xx   flac  0.5688  gd83-05-14 13 Drums.flac
     6:11.880      71401004 B   cxx   --   ---xx   flac  0.5665  gd83-05-14 14 Space.flac
     9:51.613     113589804 B   cxx   --   ---xx   flac  0.6112  gd83-05-14 15 The Wheel.flac
     2:24.960      27832364 B   cxx   --   ---xx   flac  0.6328  gd83-05-14 16 Playin' In The Band Reprise.flac
    10:15.293     118136364 B   cxx   --   ---xx   flac  0.6175  gd83-05-14 17 Morning Dew.flac
    11:10.480     128732204 B   cxx   --   ---xx   flac  0.6250  gd83-05-14 18 Sugar Magnolia.flac
     4:59.656      57533996 B   cxx   --   ---xx   flac  0.6103  gd83-05-14 19 One More Saturday Night.flac
   138:08.576    1591407428 B                            0.6110  (19 files)

No errors occured.


Show Checksums
ffp
gd83-05-14 01 Tuning.flac:881cf4d39d03835578f63c50f33378d1
gd83-05-14 02 Feel Like A Stranger.flac:4e493ce0cd906fd0bc66f21c7f3f2c89
gd83-05-14 03 Friend Of The Devil.flac:9d4474c7393cfbde8f09d42b92d1828c
gd83-05-14 04 Me & My Uncle.flac:b912b6f8547220b45b28ff6a6c82095b
gd83-05-14 05 Mexicali Blues.flac:f775a79d7e1a5b6f740f991e048dfd16
gd83-05-14 06 Happy Birthday Billy.flac:e9bf92eddbf173bab795783b6f76aa7b
gd83-05-14 07 Tennessee Jed.flac:f7c325b0d1167fb1f8fcc7f4bb14b48c
gd83-05-14 08 My Brother Esau.flac:5911cce4cb79003084797d776c17cb4e
gd83-05-14 09 Bertha.flac:ecdc7c4c1b4eb778744dea18f3142a50
gd83-05-14 10 Shakedown Street.flac:2871945e99ddec5feabba3ad62c221bd
gd83-05-14 11 Playin' In The Band.flac:87bbd423ad31dd9f0d1fdd3e16fc2754
gd83-05-14 12 China Doll.flac:a64529896460f831e91c043cb0f14918
gd83-05-14 13 Drums.flac:11702584cdbdb0895b57e5960431c1c2
gd83-05-14 14 Space.flac:33edffedcfb4671777f57e0463776bbc
gd83-05-14 15 The Wheel.flac:d71008c434153a687c839d7719c8ce4a
gd83-05-14 16 Playin' In The Band Reprise.flac:67acadeca769a2719c90dc3144822791
gd83-05-14 17 Morning Dew.flac:da59aac29408bb1bc33d5f621f36864b
gd83-05-14 18 Sugar Magnolia.flac:97875defa9a9fef0cf1e884392d626d4
gd83-05-14 19 One More Saturday Night.flac:a0beff56583315b4f2934a0061f221e3
flac-md5
5bf4bb0f859e7f540080afe5b26150fd *gd83-05-14 01 Tuning.flac
853b9dfbbcbe0d42af69adf2775cca50 *gd83-05-14 02 Feel Like A Stranger.flac
d993103e494044bc4c4d49bf9ec6a336 *gd83-05-14 03 Friend Of The Devil.flac
e33b17359474474779bcf8e431f38897 *gd83-05-14 04 Me & My Uncle.flac
992712a306261a02f5482b7d22437a08 *gd83-05-14 05 Mexicali Blues.flac
8628a92193066d4a1aca96609825758e *gd83-05-14 06 Happy Birthday Billy.flac
7eec0b059efd70b980ade4e2525955d0 *gd83-05-14 07 Tennessee Jed.flac
7ce6a8e9f5cc4542fc9318762e113071 *gd83-05-14 08 My Brother Esau.flac
651c5faefbe17c1b188aeada6e7f8dae *gd83-05-14 09 Bertha.flac
32d5dc98545003e6995411a4575cd688 *gd83-05-14 10 Shakedown Street.flac
f6b83bec47afd2838f1a9dff011f7321 *gd83-05-14 11 Playin' In The Band.flac
24bf622c39940d78d52ca6979f7b6d7c *gd83-05-14 12 China Doll.flac
8a51fbf3452a5ae60e0a8b7eb488e6e4 *gd83-05-14 13 Drums.flac
8e4ffe885b2ae228ef08ddffbcff7727 *gd83-05-14 14 Space.flac
00a9209834334d8c422c2cca56118387 *gd83-05-14 15 The Wheel.flac
fe84cc4942037875d9ad1ad70b0b4bf8 *gd83-05-14 16 Playin' In The Band Reprise.flac
7c4bfc7691b13eac44d1f36d611ad478 *gd83-05-14 17 Morning Dew.flac
5df79cac2292e6e5512114fadff173a2 *gd83-05-14 18 Sugar Magnolia.flac
5b79e7156e0887585d5c120af8dead36 *gd83-05-14 19 One More Saturday Night.flac

Comments
Add Comment
Other Sources (comments)
FOB: 3 Sennheiser 421's >... (1) FOB: Sennheiser 421's >... (0) FOB Sennheiser 421s>Sony... (0) *Set 1 Only*
...
(1) flac16; Master:... (0) flac16; Set 1 only,... (0) flac16; Recording... (0) flac16; Recording... (0) flac16; Source:... (0) Source: Audience recording... (1) flac24/48 Master:... (0) flac16/44.1 ... (0)
Date User Comment
12/28/2017 Scott Clugston .txt file above is incorrect. Where is states " Weir stays on stage and jams with the drummers after "Playin' In The Band" when it should say " Weir stays on stage and jams with the drummers after "China Doll"