Browse Collections Artists Sources   Search Dates

Add Show    List Management    Help


Bob Weir & Rob Wasserman 05/23/90
Sheraton Ballroom, Steamboat Springs, CO
Comments Add Comment    Source Collectors    Add to Collection    Add to Want List    History
Source # 140370 Other Sources
Entered by norm
Checksums bw+rw1990-05-23.md5 , bw+rw1990-05-23.ffp
Disc Counts 0 / 0
Media Size Compressed: 1.78 GB (1914331136 bytes)
Date Circulated
Date Added
12/14/2017
12/27/2017
Source Summary flac24: Recording Info: SBD > Cassette Master (TDK SA-X90) Transfer Info: Cassette Master (Nakamichi CR-7A) > Tascam DA-3000 (DSF 1-bit/5.8 MHz) > KORG AudioGate 4 > Samplitude Pro X3 Suite > FLAC/24 All Transfers and Mastering By Charlie Miller 
Source Information - Download Text | Download Zip
Bob Weir & Rob Wasserman - May 23, 1990
Sheraton Ballroom - Steamboat Springs, CO

Recording Info:
SBD > Cassette Master (TDK SA-X90)

Transfer Info:
Cassette Master (Nakamichi CR-7A) > Tascam DA-3000 (DSF 1-bit/5.8 MHz) >
KORG AudioGate 4 > Samplitude Pro X3 Suite > FLAC/24
(1 Disc FLAC)

All Transfers and Mastering By Charlie Miller
[email protected]
December 14, 2017

Notes:
-- Tape flip in Looks Like Rain at 1:52

Set 1:
01 - Tuning
02 - Festival
03 - Twiight Time
04 - City Girls
05 - Fever
06 - Eternity
07 - Desolation Row
08 - Heaven Help The Fool

Set 2:
09 - Tuning
10 - Blackbird
11 - K.C. Moan
12 - Artificial Flowers
13 - Looks Like Rain
14 - The Winners
15 - Easy To Slip
16 - Bass Solo
17 - Victim Or The Crime
18 - Throwing Stones

Encore:
19 - Encore Break
20 - When I Paint My Masterpiece


SHNTOOL OUTPUT:
    length     expanded size    cdr  WAVE problems  fmt   ratio  filename
     0:19.790      11399150 B   cxx   --   ---xx   flac  0.6039  01 Tuning.flac
     4:44.070     163624424 B   cxx   --   ---xx   flac  0.6625  02 Festival.flac
     3:28.858     120302150 B   cxx   --   ---xx   flac  0.6572  03 Twilight Time.flac
     3:40.492     127003670 B   cxx   --   ---xx   flac  0.6533  04 City Girls.flac
     4:04.995     141117200 B   cxx   --   ---xx   flac  0.6338  05 Fever.flac
     3:15.582     112655306 B   cxx   --   ---xx   flac  0.6467  06 Eternity.flac
     9:11.568     317703146 B   cxx   --   ---xx   flac  0.6570  07 Desolation Row.flac
     6:23.551     220925420 B   cxx   --   ---xx   flac  0.6533  08 Heaven Help The Fool.flac
     0:33.340      19203704 B   cxx   --   ---xx   flac  0.6493  09 Tuning.flac
     2:30.917      86928506 B   cxx   --   ---xx   flac  0.6732  10 Blackbird.flac
     2:28.616      85602902 B   cxx   --   ---xx   flac  0.6648  11 KC Moan.flac
     3:51.671     133442270 B   cxx   --   ---xx   flac  0.6706  12 Artificial Flowers.flac
     4:45.979     164723732 B   cxx   --   ---xx   flac  0.6718  13 Looks Like Rain.flac
     3:35.124     123911600 B   cxx   --   ---xx   flac  0.6646  14 The Winners.flac
     7:01.421     242738462 B   cxx   --   ---xx   flac  0.6557  15 Easy To Slip.flac
     5:40.979     196403930 B   cxx   --   ---xx   flac  0.6229  16 Bass Solo.flac
     5:19.867     184243412 B   cxx   --   ---xx   flac  0.6662  17 Victim Or The Crime.flac
     7:56.772     274620764 B   cxx   --   ---xx   flac  0.6618  18 Throwing Stones.flac
     1:29.106      51325358 B   cxx   --   ---xx   flac  0.6394  19 Encore Break.flac
     4:00.794     138697616 B   cxx   --   ---xx   flac  0.6661  20 When I Paint My Masterpiece.flac
    84:23.493    2916572722 B                            0.6564  (20 files)

Show Checksums
bw+rw1990-05-23.md5
e896428ad32fdf0feb6fa9849ab2e31c *01 Tuning.flac
b08a7268cbebb8b9b9c7d3ceb80e406e *02 Festival.flac
0803f52a818756e52e9d053b7d2179da *03 Twilight Time.flac
3ba0d7791cd68fd33da3b5cb20c482b6 *04 City Girls.flac
45e1c40961bfc26dd46bdb2140a015be *05 Fever.flac
fe73de7d78857ca4e38f95726b5ea59a *06 Eternity.flac
17788b9f0c2f71972794078d4de1d49b *07 Desolation Row.flac
94ad6eaaa13bf845d33965d55628b442 *08 Heaven Help The Fool.flac
319c21f63baf25d75894ccb7d16e1568 *09 Tuning.flac
ea7f1ecc783ed8d2171139fb2314b778 *10 Blackbird.flac
3b95c3de06b4149b3b442709c3abb7dd *11 KC Moan.flac
80797e906d87abce9d5a9745247c8a1e *12 Artificial Flowers.flac
e8634b756ab5671df928f55db11c381d *13 Looks Like Rain.flac
5bb228a11aef3f50829b89b8214d0941 *14 The Winners.flac
76b40879d32e1e1cd2f30e89dfd4aacf *15 Easy To Slip.flac
841c5a047cc8cd468305d91a23904742 *16 Bass Solo.flac
b9cf1a215d3fe91c1005ec5ade5c4213 *17 Victim Or The Crime.flac
0119cab41ebfb5ce69f29017f204aa6b *18 Throwing Stones.flac
813e2453ee4d94edf7be69561354c910 *19 Encore Break.flac
267df49f30cac9660ef4a363e5d0baee *20 When I Paint My Masterpiece.flac
bw+rw1990-05-23.ffp
01 Tuning.flac:40e17530af0e382bae0d99644b16540c
02 Festival.flac:3e845f353a183bc1f496ca5948c0c95c
03 Twilight Time.flac:cf89dfdbab4be2c4c5ab0a689fc01258
04 City Girls.flac:9079bdb33541ad6de18a7d64802a9558
05 Fever.flac:ae9160d3f9c26e543fc31fb600d0549f
06 Eternity.flac:f11ae1f97376405c96af28821ac32642
07 Desolation Row.flac:17c8703f3ea968f5287bfbd606a037d2
08 Heaven Help The Fool.flac:0561aea0ed9defffdd897fc9c5c267ec
09 Tuning.flac:4010fce4faa41b1fc9b8c9a6d1077a5c
10 Blackbird.flac:2176775d0daf77384665dac084993188
11 KC Moan.flac:3f7cd65ee9e38d820750a82a3f7b31eb
12 Artificial Flowers.flac:dfda70453e15b2dd601923c6dcd56520
13 Looks Like Rain.flac:8dec411c3dbcf1b1097b3aabf434fc4c
14 The Winners.flac:21f2d9e39f17cc1366582e11987f222b
15 Easy To Slip.flac:31e5fa90803aa26b91ef135c6a604825
16 Bass Solo.flac:075044094d2e90e70ec8f742c76fbf46
17 Victim Or The Crime.flac:8c1f9b299eff96d5fcfafb4b00caa74f
18 Throwing Stones.flac:1f712f689cc20fdd592e28ac5b34f415
19 Encore Break.flac:508bb33d07b78f388c15a001d0e9a17c
20 When I Paint My Masterpiece.flac:ef785c9eaaea1588c33b52c2a8c75b99

Comments
Add Comment
Other Sources (comments)
flac16: Recording Info: SBD... (0)
Date User Comment