Browse Collections Artists Sources   Search Dates

Add Show    List Management    Help


Bob Weir & Rob Wasserman 05/23/90
Sheraton Ballroom, Steamboat Springs, CO
Comments Add Comment    Source Collectors    Add to Collection    Add to Want List    History
Source # 140371 Other Sources
Entered by Todd
Checksums bw+rw1990-05-23..md5 , bw+rw1990-05-23..ffp
Disc Counts 0 / 0
Media Size Compressed: 468.3 MB (491048960 bytes)
Date Circulated
Date Added
12/27/2017
12/27/2017
Source Summary flac16: Recording Info: SBD > Cassette Master (TDK SA-X90) Transfer Info: Cassette Master (Nakamichi CR-7A) > Tascam DA-3000 (DSF 1-bit/5.8 MHz) > KORG AudioGate 4 > Samplitude Pro X3 Suite > FLAC/24 All Transfers and Mastering By Charlie Miller 
Source Information - Download Text | Download Zip
Bob Weir & Rob Wasserman - May 23, 1990
Sheraton Ballroom - Steamboat Springs, CO

Recording Info:
SBD > Cassette Master (TDK SA-X90)

Transfer Info:
Cassette Master (Nakamichi CR-7A) > Tascam DA-3000 (DSF 1-bit/5.8 MHz) >
KORG AudioGate 4 > Samplitude Pro X3 Suite > FLAC/24
(1 Disc FLAC)

All Transfers and Mastering By Charlie Miller
[email protected]
December 14, 2017

Notes:
-- Tape flip in Looks Like Rain at 1:52
-- This file set is 16 bit

Set 1:
01 - Tuning
02 - Festival
03 - Twiight Time
04 - City Girls
05 - Fever
06 - Eternity
07 - Desolation Row
08 - Heaven Help The Fool

Set 2:
09 - Tuning
10 - Blackbird
11 - K.C. Moan
12 - Artificial Flowers
13 - Looks Like Rain
14 - The Winners
15 - Easy To Slip
16 - Bass Solo
17 - Victim Or The Crime
18 - Throwing Stones

Encore:
19 - Encore Break
20 - When I Paint My Masterpiece


SHNTOOL OUTPUT:
    length     expanded size    cdr  WAVE problems  fmt   ratio  filename
     0:19.59        3490412 B   ---   --   ---xx   flac  0.4109  01 Tuning.flac
     4:44.05       50109404 B   ---   --   ---xx   flac  0.5820  02 Festival.flac
     3:28.64       36841772 B   ---   --   ---xx   flac  0.5335  03 Twilight Time.flac
     3:40.37       38895068 B   ---   --   ---xx   flac  0.5447  04 City Girls.flac
     4:05.00       43218044 B   ---   --   ---xx   flac  0.4842  05 Fever.flac
     3:15.44       34501532 B   ---   --   ---xx   flac  0.5279  06 Eternity.flac
     9:11.42       97295228 B   ---   --   ---xx   flac  0.5649  07 Desolation Row.flac
     6:23.41       67657676 B   ---   --   ---xx   flac  0.5643  08 Heaven Help The Fool.flac
     0:33.26        5882396 B   ---   --   ---xx   flac  0.4970  09 Tuning.flac
     2:30.69       26622332 B   ---   --   ---xx   flac  0.5594  10 Blackbird.flac
     2:28.46       26215436 B   ---   --   ---xx   flac  0.5519  11 KC Moan.flac
     3:51.50       40866044 B   ---   --   ---xx   flac  0.5735  12 Artificial Flowers.flac
     4:45.74       50448092 B   ---   --   ---xx   flac  0.5832  13 Looks Like Rain.flac
     3:35.09       37947212 B   ---   --   ---xx   flac  0.5793  14 The Winners.flac
     7:01.32       74339708 B   ---   --   ---xx   flac  0.5523  15 Easy To Slip.flac
     5:40.73       60147740 B   ---   --   ---xx   flac  0.4656  16 Bass Solo.flac
     5:19.65       56424524 B   ---   --   ---xx   flac  0.5763  17 Victim Or The Crime.flac
     7:56.58       84102860 B   ---   --   ---xx   flac  0.5691  18 Throwing Stones.flac
     1:29.08       15718460 B   ---   --   ---xx   flac  0.4742  19 Encore Break.flac
     4:00.60       42477164 B   ---   --   ---xx   flac  0.5476  20 When I Paint My Masterpiece.flac
    84:23.37      893201104 B                            0.5497  (20 files)


Show Checksums
bw+rw1990-05-23..md5
83e274a7c0dd40fa3e2d1a9d320357fd *01 Tuning.flac
e4a0953b6c2b037f38b71c958791f43c *02 Festival.flac
b4fcb07c9eae8a2ac31097cd12a24bac *03 Twilight Time.flac
c4c438e97a0fd666fec2ea076f87ff13 *04 City Girls.flac
bc32cfee8a16b1be8b70f776976d43d7 *05 Fever.flac
8082514ae772c10523cbb3de45225732 *06 Eternity.flac
28efe98a299fedcb8b3d2fb98611deed *07 Desolation Row.flac
7207d8e33f35090e30a7df76c009b26a *08 Heaven Help The Fool.flac
160dca5228a4de057c907f2ef7e80c0a *09 Tuning.flac
7710f7154d75d4262eaab41edcfe4d7c *10 Blackbird.flac
2ff29e7c0d84c78438c5670976112e61 *11 KC Moan.flac
5c15d89db8ce213531d27a143f9168be *12 Artificial Flowers.flac
741cb6e6befebd86663e64288142f4fc *13 Looks Like Rain.flac
d1d0515140d757f7d84d96a198ca14a7 *14 The Winners.flac
3252665d2623e29b15664eac98426543 *15 Easy To Slip.flac
50145f83dd2da1466a129d420257e6fb *16 Bass Solo.flac
6d2f93233043e467ef28faba1af9c359 *17 Victim Or The Crime.flac
140f7e3326328f7241206dd2cf3f048d *18 Throwing Stones.flac
f43d47b30eeba893cc41ac8fa6358671 *19 Encore Break.flac
955f1bc045740d19354593463f47c74a *20 When I Paint My Masterpiece.flac
bw+rw1990-05-23..ffp
01 Tuning.flac:b7f50a3957224fe2ed2a70885996ba61
02 Festival.flac:17fb34020d332a69c64b98781788df02
03 Twilight Time.flac:47ef90f55068f52bb659ea09d0257711
04 City Girls.flac:7d8c2d5604f9f7f53873bc3250a11f4d
05 Fever.flac:f1bcea580bcdc456eb678cabee20e111
06 Eternity.flac:9dcb0b56363a6cc14fa8edb7bca6837d
07 Desolation Row.flac:777214af41e5fa1f4ec47df754083f7f
08 Heaven Help The Fool.flac:ecb81af9ade352b20c72efc962331c5b
09 Tuning.flac:cbc4fb39042ce3bd01318e086b534469
10 Blackbird.flac:65871bb7ca25ff8c3580ce6c3e745282
11 KC Moan.flac:515816b5cc10b5348cbb8dddf634780d
12 Artificial Flowers.flac:c01e6e8e59e7f74ff4c2b8088e86ac14
13 Looks Like Rain.flac:33a94ef0ce1196cd7b701ca39f05a94e
14 The Winners.flac:a158d9472d459a7154fbe556d051fd2e
15 Easy To Slip.flac:10076354515c9b75c9af86f69412a586
16 Bass Solo.flac:f0578018f827a43202b451c373cecf7e
17 Victim Or The Crime.flac:0fd1dcf805ade5a94aca70a682778ba7
18 Throwing Stones.flac:d374353031c9b49a613e2f5af140be0a
19 Encore Break.flac:93cbc0c005b2382477b7d28089cb2fb9
20 When I Paint My Masterpiece.flac:eee81775c1cadf6a7932ea9859856ac2

Comments
Add Comment
Other Sources (comments)
flac24: Recording Info: SBD... (0)
Date User Comment