Browse Collections Artists Sources   Search Dates

Add Show    List Management    Help


Grateful Dead 04/04/87
The Centrum, Worcester, MA
Comments Add Comment    Source Collectors    Add to Collection    Add to Want List    History
Source # 140372 Other Sources
Entered by Matt Vernon
Checksums ffp , flac-md5
Disc Counts 0 / 0
Media Size Compressed: 806.88 MB (846073856 bytes)
Date Circulated
Date Added
12/27/2017
12/27/2017
Source Summary flac16; Recording Info: UltraMatrix SBD > Cassette Master (TDK MA-R90); Transfer Info: Cassette Master (Nakamichi CR-7A) > Tascam DA-3000 (DSF 1-bit/5.8 MHz) > KORG AudioGate 4 > Samplitude Pro X3 Suite > FLAC/24; All Transfers and Mastering By Charlie Miller 
  Archive
Source Information - Download Text | Download Zip
Grateful Dead - April 4, 1987
The Centrum - Worcester, MA

Recording Info:
UltraMatrix SBD > Cassette Master (TDK MA-R90)

Transfer Info:
Cassette Master (Nakamichi CR-7A) > Tascam DA-3000 (DSF 1-bit/5.8 MHz) >
KORG AudioGate 4 > Samplitude Pro X3 Suite > FLAC/24
(1 Disc FLAC)

All Transfers and Mastering By Charlie Miller
[email protected]
December 20, 2017

Notes:
-- Two sets of masters were used to make this show complete
-- This file set is 16 bit

Set 1:
01 - Tuning
02 - Touch Of Grey >
03 - Greatest Story Ever Told
04 - Althea
05 - El Paso
06 - Tennessee Jed
07 - Cassidy
08 - Never Trust A Woman
09 - Box Of Rain
10 - The Promised Land

Set 2:
11 - Iko Iko
12 - Playing In The Band >
13 - Comes A Time >
14 - Willie And The Hand Jive >
15 - Drums >
16 - Space >
17 - Truckin' >
18 - Playing In The Band >
19 - Morning Dew

Encore:
20 - Encore Break
21 - One More Saturday Night


SHNTOOL OUTPUT:
    length     expanded size    cdr  WAVE problems  fmt   ratio  filename
     2:30.52       26582348 B   ---   --   ---xx   flac  0.5239  01 Tuning.flac
     6:01.69       63842732 B   ---   --   ---xx   flac  0.6320  02 Touch Of Grey.flac
     4:22.37       46303868 B   ---   --   ---xx   flac  0.6063  03 Greatest Story Ever Told.flac
     7:42.60       81637964 B   ---   --   ---xx   flac  0.5976  04 Althea.flac
     7:01.57       74398508 B   ---   --   ---xx   flac  0.5931  05 El Paso.flac
     9:56.59      105273212 B   ---   --   ---xx   flac  0.5967  06 Tennessee Jed.flac
     6:27.23       68320940 B   ---   --   ---xx   flac  0.6268  07 Cassidy.flac
     7:51.73       83256140 B   ---   --   ---xx   flac  0.6028  08 Never Trust A Woman.flac
     4:50.56       51287756 B   ---   --   ---xx   flac  0.6345  09 Box Of Rain.flac
     4:39.60       49356764 B   ---   --   ---xx   flac  0.6304  10 Promised Land.flac
     6:55.33       73283660 B   ---   --   ---xx   flac  0.6251  11 Iko Iko.flac
    10:12.64      108107372 B   ---   --   ---xx   flac  0.6293  12 Playing In The Band.flac
     8:01.05       84860204 B   ---   --   ---xx   flac  0.5916  13 Comes A Time.flac
     6:07.74       64912892 B   ---   --   ---xx   flac  0.6337  14 Hand Jive.flac
     7:54.34       83693612 B   ---   --   ---xx   flac  0.5129  15 Drums.flac
     6:43.34       71169212 B   ---   --   ---xx   flac  0.4898  16 Space.flac
     7:35.53       80386700 B   ---   --   ---xx   flac  0.6305  17 Truckin'.flac
     3:15.55       34527404 B   ---   --   ---xx   flac  0.5885  18 Playing In The Band.flac
     9:04.31       96034556 B   ---   --   ---xx   flac  0.5882  19 Morning Dew.flac
     1:23.04       14650652 B   ---   --   ---xx   flac  0.5401  20 Encore Break.flac
     4:59.55       52873004 B   ---   --   ---xx   flac  0.6228  21 One More Saturday Night.flac
   133:40.13     1414759500 B                            0.5980  (21 files)




Show Checksums
ffp
01 Tuning.flac:ec2128994e1e3f0479da64c1cb99fd46
02 Touch Of Grey.flac:cadf4d3ac16fe81f6b0d060f419d1421
03 Greatest Story Ever Told.flac:f548b781810251fb4e83057af72c87bf
04 Althea.flac:3f6702eee222a5202e9c8953a44d0412
05 El Paso.flac:066b034eab3acabc61eb3cbc099ff0be
06 Tennessee Jed.flac:4c0382df3b3e49021e999ea6fa9b9d00
07 Cassidy.flac:8a45da2ddfdca8fb590da89f4fb3efd0
08 Never Trust A Woman.flac:6c9d730c94eee9dbb40df43306e50533
09 Box Of Rain.flac:b0b85627869e931f258189b6c757d38d
10 Promised Land.flac:a25f59ed2149a8a16c402adbf1c1532c
11 Iko Iko.flac:827d918b5eed46af97de648bb517d3f4
12 Playing In The Band.flac:69edc2d384a49ced27a2cbf599984e56
13 Comes A Time.flac:382db3a4c8a273401e2bf9d805cb4e64
14 Hand Jive.flac:56035be05cf797d830655efac020a60d
15 Drums.flac:23aa0d63ed1851bcb21ebe53766d8919
16 Space.flac:54d5c175e97bd1d38da1a317dd3702dc
17 Truckin'.flac:5705aff77b78527a51c2bc7b3d44b057
18 Playing In The Band.flac:e10c30af25555a232a97163ea8dbcfc6
19 Morning Dew.flac:2ab41c83b34bcf019823624651486100
20 Encore Break.flac:3bb0c5c4393b565a88cea09888df839a
21 One More Saturday Night.flac:34d3c162022502f942fbcb9435d59233
flac-md5
b74ca4aa941614fe26616e5c788dc9bb *01 Tuning.flac
f2cd266f000aaeeb8333ab9e8372c77f *02 Touch Of Grey.flac
dd38b9338556129c8e0f6803ab3c7c1a *03 Greatest Story Ever Told.flac
6b5ac6e002bafb9ee0613ae70170b02d *04 Althea.flac
102f3c7f61684cf09a5d978ce9668645 *05 El Paso.flac
304ea4abf408659ee60e2c706c1f84a1 *06 Tennessee Jed.flac
48bda94924df7562d6f90e7eb09e90c6 *07 Cassidy.flac
1a8a6399ecb12ad951ced43a0ccabb84 *08 Never Trust A Woman.flac
f4dbfd494762b34b33635643685cb102 *09 Box Of Rain.flac
fb098ecb013e85eebf204f69dcf10de0 *10 Promised Land.flac
c5527589b68d23c9d4772c01ee7e56d6 *11 Iko Iko.flac
0ff673baff715c2dd13f6a1c26fba091 *12 Playing In The Band.flac
20d1b277aaa63148a05f2efd8dd471ce *13 Comes A Time.flac
a70f2305d54f9bb0bb7c39d807f5cc0f *14 Hand Jive.flac
90044fe9e2cf5aab8de960e5faa1c61f *15 Drums.flac
6c0deb1b45c41a97aed6ff5c2af24e31 *16 Space.flac
02fbe3ce0e74bdec4936630d479e9fa0 *17 Truckin'.flac
8e68057cf5d507ae6c83cf0384098e88 *18 Playing In The Band.flac
860004a8056c5331174697f18ed6a936 *19 Morning Dew.flac
02326586e0a96768ef4cc450bab95332 *20 Encore Break.flac
421bd5e77cbf2f2913c040b334bbee66 *21 One More Saturday Night.flac

Comments
Add Comment
Other Sources (comments)
FOB Schoeps > PCM > DAT >... (1) flac16; Source: AUD,... (0) flac16; taper : Joe... (0) flac16; Recording... (0) flac16; Recording... (0) flac16; FOB>AKG... (0) flac16; Master... (0) flac24; Master... (0) flac24; source:... (0) flac24; Recording... (0) flac24; Recording... (0) flac16; Recording... (0)
Date User Comment