Browse Collections Artists Sources   Search Dates

Add Show    List Management    Help


Grateful Dead 04/07/87
Meadowlands Arena, East Rutherford, NJ
Comments Add Comment    Source Collectors    Add to Collection    Add to Want List    History
Source # 140377 Other Sources
Entered by Matt Vernon
Checksums flac-md5 , ffp
Disc Counts 0 / 0
Media Size Compressed: 894.96 MB (938434560 bytes)
Date Circulated
Date Added
12/28/2017
12/28/2017
Source Summary flac16; Recording Info: UltraMatrix SBD > Cassette Master (TDK MA-R90); Transfer Info: Cassette Master (Nakamichi CR-7A) > Tascam DA-3000 (DSF 1-bit/5.8 MHz) > KORG AudioGate 4 > Samplitude Pro X3 Suite > FLAC/24; All Transfers and Mastering By Charlie Miller 
  Archive
Source Information - Download Text | Download Zip
Grateful Dead - April 7, 1987
Meadowlands Arena - East Rutherford, NJ

Recording Info:
UltraMatrix SBD > Cassette Master (TDK MA-R90)

Transfer Info:
Cassette Master (Nakamichi CR-7A) > Tascam DA-3000 (DSF 1-bit/5.8 MHz) >
KORG AudioGate 4 > Samplitude Pro X3 Suite > FLAC/24
(1 Disc FLAC)

All Transfers and Mastering By Charlie Miller
[email protected]
December 23, 2017

Notes:
-- False start to Hell In A Bucket
-- Two sets of masters were used to make this show complete
-- This file set is 16 bit

Set 1:
01 - Tuning
02 - Touch Of Grey >
03 - New Minglewood Blues
04 - Friend Of The Devil
05 - Beat It On Down The Line
06 - Stagger Lee
07 - Mama Tried >
08 - Big River
09 - West L.A. Fadeaway
10 - Hell In A Bucket >
11 - Don't Ease Me In

Set 2:
12 - Tuning
13 - Box Of Rain
14 - I Need A Miracle >
15 - Bertha
16 - Ship Of Fools
17 - Man Smart (Woman Smarter) >
18 - Drums >
19 - Space >
20 - Gimme Some Lovin' >
21 - Morning Dew >
22 - Throwing Stones >
23 - Not Fade Away

Encore:
24 - Tuning
25 - The Mighty Quinn (Quinn The Eskimo)


SHNTOOL OUTPUT:
    length     expanded size    cdr  WAVE problems  fmt   ratio  filename
     1:37.55       17240204 B   ---   --   ---xx   flac  0.5202  01 Tuning.flac
     6:09.26       65152796 B   ---   --   ---xx   flac  0.6118  02 Touch Of Grey.flac
     7:36.62       80584268 B   ---   --   ---xx   flac  0.5807  03 New Minglewood Blues.flac
    10:11.10      107803964 B   ---   --   ---xx   flac  0.5689  04 Friend Of The Devil.flac
     3:25.73       36333740 B   ---   --   ---xx   flac  0.6034  05 Beat It On Down The Line.flac
     7:07.67       75480428 B   ---   --   ---xx   flac  0.5653  06 Stagger Lee.flac
     2:36.73       27690140 B   ---   --   ---xx   flac  0.5984  07 Mama Tried.flac
     5:17.47       56029388 B   ---   --   ---xx   flac  0.6167  08 Big River.flac
     8:46.46       92894636 B   ---   --   ---xx   flac  0.5661  09 West LA Fadeaway.flac
     7:29.52       79325948 B   ---   --   ---xx   flac  0.6085  10 Hell In A Bucket.flac
     4:02.29       42757052 B   ---   --   ---xx   flac  0.5908  11 Don't Ease Me In.flac
     1:17.41       13679276 B   ---   --   ---xx   flac  0.5231  12 Tuning.flac
     5:07.46       54263036 B   ---   --   ---xx   flac  0.6145  13 Box Of Rain.flac
     3:15.47       34508588 B   ---   --   ---xx   flac  0.6187  14 I Need A Miracle.flac
     6:19.33       66933260 B   ---   --   ---xx   flac  0.6052  15 Bertha.flac
     9:26.54       99969452 B   ---   --   ---xx   flac  0.5611  16 Ship Of Fools.flac
     7:11.05       76040204 B   ---   --   ---xx   flac  0.6069  17 Man Smart (Woman Smarter).flac
    10:00.68      105999980 B   ---   --   ---xx   flac  0.5338  18 Drums.flac
    11:08.41      117931676 B   ---   --   ---xx   flac  0.4951  19 Space.flac
     4:49.17       51019628 B   ---   --   ---xx   flac  0.5974  20 Gimme Some Lovin'.flac
    10:28.32      110854508 B   ---   --   ---xx   flac  0.5684  21 Morning Dew.flac
     8:25.07       89098508 B   ---   --   ---xx   flac  0.5920  22 Throwing Stones.flac
     5:08.21       54380636 B   ---   --   ---xx   flac  0.6099  23 Not Fade Away.flac
     0:50.62        8965868 B   ---   --   ---xx   flac  0.5388  24 Tuning.flac
     5:42.72       60498188 B   ---   --   ---xx   flac  0.5920  25 The Mighty Quinn (Quinn The Eskimo).flac
   153:34.36     1625435372 B                            0.5773  (25 files)




Show Checksums
flac-md5
0362e887a5c019fca6f59a6afc0ddf54 *01 Tuning.flac
6d9f572ff4c0d2467e4697bd908fef89 *02 Touch Of Grey.flac
0e61586c97614c6f26957834ed9e8dd2 *03 New Minglewood Blues.flac
00b7eb32bbf61782fd2264e73eff3a8b *04 Friend Of The Devil.flac
8bc761049118b3cdee059c2d59940917 *05 Beat It On Down The Line.flac
82d60345b52c0c7c02377d4189466b9e *06 Stagger Lee.flac
b642292cbd3e92c4b002d5d14ae8ffd3 *07 Mama Tried.flac
fe196598bac466efe0b0961a759276f4 *08 Big River.flac
4dd71d96eef040408e36bdfe9c9fb70a *09 West LA Fadeaway.flac
a6239573bf4f8c90621278f71f8fe03d *10 Hell In A Bucket.flac
bf87382e9097875037759ed4742abd15 *11 Don't Ease Me In.flac
09adcb56848fca7371f6115a9cafeac4 *12 Tuning.flac
b61aba2ce8b6bcc87ec4cb1f0fe51bb0 *13 Box Of Rain.flac
7d516b6ee6d91f75b27b48e373795a65 *14 I Need A Miracle.flac
eab82f6005c45adf5692c6be7918d32f *15 Bertha.flac
fbc833e333885723993d202d5008576c *16 Ship Of Fools.flac
5ff53f79923df88a6ec09fadf6822e68 *17 Man Smart (Woman Smarter).flac
73163ca14f9c2b35420c7af4e314e921 *18 Drums.flac
4f4554216ce91fbbac05abf7ff380c93 *19 Space.flac
f7c59bb3482716d143f33af3af9fa936 *20 Gimme Some Lovin'.flac
c25af7c2ba33e17daaf3fb52d2a78782 *21 Morning Dew.flac
42d611a598fd946ad3cf57a458a352ac *22 Throwing Stones.flac
43e8b30f0b78655f7e316f417dd84884 *23 Not Fade Away.flac
397c7676045cf2d8655cc68b0f12e11e *24 Tuning.flac
e6c903ce4b12b7eec0f3b0933d3c710f *25 The Mighty Quinn (Quinn The Eskimo).flac
ffp
01 Tuning.flac:5886bf93476458ff9f9e86c1fe4faa73
02 Touch Of Grey.flac:8485466a294f02716177c92b32cd2f97
03 New Minglewood Blues.flac:5589c43e05fc5050463baeebacfe5d18
04 Friend Of The Devil.flac:8986e0b8e130e0d05556275ec0a150d0
05 Beat It On Down The Line.flac:e08a340ba8bd54d69a80ac8264d1d348
06 Stagger Lee.flac:c52d12adaa92b106d353b3d4827bed89
07 Mama Tried.flac:a83ff0549ec55e5bc80c460bc93b967b
08 Big River.flac:870324619ffad70305d3507791bffd76
09 West LA Fadeaway.flac:c02efd8287f8f8eba3246166929c04ca
10 Hell In A Bucket.flac:e66a229971d7ebf8741684e5300466ca
11 Don't Ease Me In.flac:ec3f23a39053b58cadc16b2a4a25f1d2
12 Tuning.flac:a1e75a3a471730d5f63cc3a03258a53c
13 Box Of Rain.flac:43ffa249feca7680a5b4fd3c316b33cd
14 I Need A Miracle.flac:f61e890baabfdbc90cbe3e2aca7aafde
15 Bertha.flac:5404c76f7eb57816d6e8cade2ff4ead9
16 Ship Of Fools.flac:752dc314d5ccc3577798d76abd039af1
17 Man Smart (Woman Smarter).flac:76e1ba87ae63723eb80c3ad8dd165d93
18 Drums.flac:1333479722e616880ce2ac7f5a13ba6d
19 Space.flac:3df55310eb1d0a9c1f312013532468dc
20 Gimme Some Lovin'.flac:ee47d9192f5fa13ce1aaf52b8639b8a4
21 Morning Dew.flac:a0fcb7703feecf7821f8744578c14935
22 Throwing Stones.flac:bac37ff9ecf8320bb92b0658529b3a9a
23 Not Fade Away.flac:ab319e19c483c69be5f98bd47ecfd793
24 Tuning.flac:683c3dd80bee48b298b5fac720cf36e6
25 The Mighty Quinn (Quinn The Eskimo).flac:f28572e014f2c8efd92772396f9d8257

Comments
Add Comment
Other Sources (comments)
AUD>MC>DAT>CDR; Schoeps... (0) Source:... (3) flac16; Source:... (0) flac16; taper : Joe... (0) flac16; Source:... (0) flac16; Nakamichi... (0) flac24; Source:... (0) flac24; Set 2... (0) flac24; Recording... (0)
Date User Comment