Browse Collections Artists Sources   Search Dates

Add Show    List Management    Help


Phish 12/28/17
Madison Square Garden, New York, NY
Comments Add Comment    Source Collectors    Add to Collection    Add to Want List    History
Source # 140390 Other Sources
Entered by Matt Vernon
Checksums ffp
Disc Counts 0 / 0
Media Size
Date Circulated
Date Added
12/29/2017
12/29/2017
Source Summary flac16 44.1khz Location: OTS/ DFC (Section 2, Row 6, Seat 11). Source: Schoeps mk41v (~70° @ 21cm)>kc5>cmc6>Sonosax SX-R4. Transfer: Sonosax SX-R4>USB-C>MacBook Pro>Pro Tools 12(normalizing)>Audacity(tracking, fades)>Sony Soundforge Convrt(resample(izotope,highest settings)/dither(mbit+/ultra, high dither)to 16 bit/44.1k)>XAct(FLAC 8,ffp,fix sbe,tagging). Recorded and Transferred by Andy Murray. 
Source Information - Download Text | Download Zip
Phish
Madison Square Garden
New York, NY
December 28, 2017

Location: OTS/ DFC (Section 2, Row 6, Seat 11)
Source: Schoeps mk41v (~70° @ 21cm)>kc5>cmc6>Sonosax SX-R4
Transfer: Sonosax SX-R4>USB-C>MacBook Pro>Pro Tools 12(normalizing)>Audacity(tracking, fades)>Sony Soundforge Convrt(resample(izotope,highest settings)/dither(mbit+/ultra, high dither)to 16 bit/44.1k)>XAct(FLAC 8,ffp,fix sbe,tagging)

Recorded and Transferred by Andy Murray

Set I:
01 Intro
02 AC/DC Bag >
03 Wolfman's Brother
04 Roggae
05 Tube >
06 Bouncing Around The Room
07 Back On The Train
08 Your Pet Cat
09 Waking Up Dead >
10 Theme From The Bottom

Set II:
01 Intro
02 Wilson >
03 No Men In No Man's Land >
04 Twist >
05 Everything's Right >
06 Also Sprach Zarathustra >
07 Harry Hood
08 Encore Break
09 The Wedge
10 Slave To The Traffic Light

;flac fingerprints generated by xACT 2.43 on 2017-12-29 17:18:51 +0000

ph2017-12-28.mk41v.sxr4.1644.s1t01.flac:97a4ece8820bf8bbf9664c1159467237
ph2017-12-28.mk41v.sxr4.1644.s1t02.flac:8a8b7f842891e74ba217459423c148ef
ph2017-12-28.mk41v.sxr4.1644.s1t03.flac:0ec60a3ba49dc737527d74c61b79086f
ph2017-12-28.mk41v.sxr4.1644.s1t04.flac:4d5b24384a502b0d02f8b46c6fe9adaf
ph2017-12-28.mk41v.sxr4.1644.s1t05.flac:1eef12c521189f3f11ec32cb3a06849c
ph2017-12-28.mk41v.sxr4.1644.s1t06.flac:a7091de3088a1d9d128b48667bba579b
ph2017-12-28.mk41v.sxr4.1644.s1t07.flac:52b8ad4e688e66eaca1045d3005e22ae
ph2017-12-28.mk41v.sxr4.1644.s1t08.flac:2df087e11578e9de8a9bd09d49f50ced
ph2017-12-28.mk41v.sxr4.1644.s1t09.flac:a4ff518b67d3ba8f5f9b77edc35ab55d
ph2017-12-28.mk41v.sxr4.1644.s1t10.flac:3ab9280ac937eb1a35ec706e876ef1f2
ph2017-12-28.mk41v.sxr4.1644.s2t01.flac:016380861df637ac6f3d6ccd50580100
ph2017-12-28.mk41v.sxr4.1644.s2t02.flac:44fbd9ca2442cee217189acce95218ca
ph2017-12-28.mk41v.sxr4.1644.s2t03.flac:8df4e92e5e453dc14e591a260026a0c1
ph2017-12-28.mk41v.sxr4.1644.s2t04.flac:094e9631260e12f9c469819c3388b380
ph2017-12-28.mk41v.sxr4.1644.s2t05.flac:ad7c6eeb9995af36a83593c528d9f27a
ph2017-12-28.mk41v.sxr4.1644.s2t06.flac:408c57547520e1f67b231f9d52806ad1
ph2017-12-28.mk41v.sxr4.1644.s2t07.flac:b7c564d7577a87fe840d6a7199027616
ph2017-12-28.mk41v.sxr4.1644.s2t08.flac:7c69605d4c24e2c54bf2afd828e36770
ph2017-12-28.mk41v.sxr4.1644.s2t09.flac:bf9ef5febe4618fa8223912fff9bcb14
ph2017-12-28.mk41v.sxr4.1644.s2t10.flac:b764265451b5c11841a1c1ea19dd131c

length expanded size cdr WAVE problems fmt ratio filename
1:16.39 13498172 B --- -- ----- wav 1.0000 ph2017-12-28.mk41v.sxr4.1644.s1t01.wav
7:08.00 75499244 B --- -- ----- wav 1.0000 ph2017-12-28.mk41v.sxr4.1644.s1t02.wav
13:10.11 139381916 B --- -- ----- wav 1.0000 ph2017-12-28.mk41v.sxr4.1644.s1t03.wav
10:21.16 109582076 B --- -- ----- wav 1.0000 ph2017-12-28.mk41v.sxr4.1644.s1t04.wav
8:06.07 85746908 B --- -- ----- wav 1.0000 ph2017-12-28.mk41v.sxr4.1644.s1t05.wav
3:44.23 39567740 B --- -- ----- wav 1.0000 ph2017-12-28.mk41v.sxr4.1644.s1t06.wav
10:11.60 107921564 B --- -- ----- wav 1.0000 ph2017-12-28.mk41v.sxr4.1644.s1t07.wav
5:58.74 63325292 B --- -- ----- wav 1.0000 ph2017-12-28.mk41v.sxr4.1644.s1t08.wav
6:31.36 69057116 B --- -- ----- wav 1.0000 ph2017-12-28.mk41v.sxr4.1644.s1t09.wav
11:30.59 121854812 B --- -- ----- wav 1.0000 ph2017-12-28.mk41v.sxr4.1644.s1t10.wav
0:46.25 8173244 B --- -- ----- wav 1.0000 ph2017-12-28.mk41v.sxr4.1644.s2t01.wav
4:42.49 49860092 B --- -- ----- wav 1.0000 ph2017-12-28.mk41v.sxr4.1644.s2t02.wav
24:06.20 255121484 B --- -- ----- wav 1.0000 ph2017-12-28.mk41v.sxr4.1644.s2t03.wav
16:11.48 171397340 B --- -- ----- wav 1.0000 ph2017-12-28.mk41v.sxr4.1644.s2t04.wav
11:29.40 121633724 B --- -- ----- wav 1.0000 ph2017-12-28.mk41v.sxr4.1644.s2t05.wav
8:29.12 89815868 B --- -- ----- wav 1.0000 ph2017-12-28.mk41v.sxr4.1644.s2t06.wav
13:20.44 141223532 B --- -- ----- wav 1.0000 ph2017-12-28.mk41v.sxr4.1644.s2t07.wav
4:11.08 44295260 B --- -- ----- wav 1.0000 ph2017-12-28.mk41v.sxr4.1644.s2t08.wav
7:23.36 78229916 B --- -- ----- wav 1.0000 ph2017-12-28.mk41v.sxr4.1644.s2t09.wav
11:29.19 121584332 B --- -- ----- wav 1.0000 ph2017-12-28.mk41v.sxr4.1644.s2t10.wav
180:09.26 1906769632 B 1.0000 (20 files)
Show Checksums
ffp
ph2017-12-28.mk41v.sxr4.1644.s1t01.flac:97a4ece8820bf8bbf9664c1159467237
ph2017-12-28.mk41v.sxr4.1644.s1t02.flac:8a8b7f842891e74ba217459423c148ef
ph2017-12-28.mk41v.sxr4.1644.s1t03.flac:0ec60a3ba49dc737527d74c61b79086f
ph2017-12-28.mk41v.sxr4.1644.s1t04.flac:4d5b24384a502b0d02f8b46c6fe9adaf
ph2017-12-28.mk41v.sxr4.1644.s1t05.flac:1eef12c521189f3f11ec32cb3a06849c
ph2017-12-28.mk41v.sxr4.1644.s1t06.flac:a7091de3088a1d9d128b48667bba579b
ph2017-12-28.mk41v.sxr4.1644.s1t07.flac:52b8ad4e688e66eaca1045d3005e22ae
ph2017-12-28.mk41v.sxr4.1644.s1t08.flac:2df087e11578e9de8a9bd09d49f50ced
ph2017-12-28.mk41v.sxr4.1644.s1t09.flac:a4ff518b67d3ba8f5f9b77edc35ab55d
ph2017-12-28.mk41v.sxr4.1644.s1t10.flac:3ab9280ac937eb1a35ec706e876ef1f2
ph2017-12-28.mk41v.sxr4.1644.s2t01.flac:016380861df637ac6f3d6ccd50580100
ph2017-12-28.mk41v.sxr4.1644.s2t02.flac:44fbd9ca2442cee217189acce95218ca
ph2017-12-28.mk41v.sxr4.1644.s2t03.flac:8df4e92e5e453dc14e591a260026a0c1
ph2017-12-28.mk41v.sxr4.1644.s2t04.flac:094e9631260e12f9c469819c3388b380
ph2017-12-28.mk41v.sxr4.1644.s2t05.flac:ad7c6eeb9995af36a83593c528d9f27a
ph2017-12-28.mk41v.sxr4.1644.s2t06.flac:408c57547520e1f67b231f9d52806ad1
ph2017-12-28.mk41v.sxr4.1644.s2t07.flac:b7c564d7577a87fe840d6a7199027616
ph2017-12-28.mk41v.sxr4.1644.s2t08.flac:7c69605d4c24e2c54bf2afd828e36770
ph2017-12-28.mk41v.sxr4.1644.s2t09.flac:bf9ef5febe4618fa8223912fff9bcb14
ph2017-12-28.mk41v.sxr4.1644.s2t10.flac:b764265451b5c11841a1c1ea19dd131c

Comments
Add Comment
Other Sources (comments)
flac16 44.1khz ... (0) flac24 48khz ... (0) flac16 44.1khz ... (0) flac24 48khz ... (0) flac16 44.1khz... (0) flac24 48khz ... (0) flac16 44.1khz ... (0) flac24 48khz ... (0) flac24 48khz ... (0) flac16 44.1khz ... (0) flac24 48khz ... (0) flac16 44.1khz ... (0) flac24 96khz ... (0) flac24 48khz ... (0) flac16 44.1khz ... (0) flac24 96khz ... (0) flac24 96khz ... (0) flac24 96khz ... (0) flac16 44.1khz ... (0) flac16 44.1khz... (0) flac16 44.1kHz... (0) flac24 96kHz Schoeps... (0) flac16 48kHz Neumann... (0)
Date User Comment