Browse Collections Artists Sources   Search Dates

Add Show    List Management    Help


Phish 12/29/17
Madison Square Garden, New York, NY
Comments Add Comment    Source Collectors    Add to Collection    Add to Want List    History
Source # 140403 Other Sources
Entered by Matt Vernon
Checksums ffp
Disc Counts 0 / 0
Media Size
Date Circulated
Date Added
12/30/2017
12/30/2017
Source Summary flac16 44.1khz Location: OTS/ DFC (Section 2, Row 6, Seat 10). Source: Schoeps mk41v (~70° @ 21cm)>kc5>cmc6>Sonosax SX-R4(24bit/96khz). Transfer: Sonosax SX-R4>USB-C>MacBook Pro>Pro Tools 12(normalizing)>Audacity(tracking, fades)>Sony Soundforge. Convrt(resample(izotope,highest settings)/dither(mbit+/ultra, high dither)to 16 bit/44.1k)>XAct(FLAC 8,ffp,fix sbe,tagging). Recorded and Transferred by Andy Murray. 
Source Information - Download Text | Download Zip
Phish
Madison Square Garden
New York, NY
December 29, 2017

Location: OTS/ DFC (Section 2, Row 6, Seat 10)
Source: Schoeps mk41v (~70° @ 21cm)>kc5>cmc6>Sonosax SX-R4(24bit/96khz)
Transfer: Sonosax SX-R4>USB-C>MacBook Pro>Pro Tools 12(normalizing)>Audacity(tracking, fades)>Sony Soundforge Convrt(resample(izotope,highest settings)/dither(mbit+/ultra, high dither)to 16 bit/44.1k)>XAct(FLAC 8,ffp,fix sbe,tagging)

Recorded and Transferred by Andy Murray

Set I

01 crowd set 1
02 Cavern >
03 Blaze On
04 555
05 I Always Wanted It This Way >
06 Martian Monster
07 Heavy Things
08 Destiny Unbound
09 Ocelot
10 Walls of the Cave

Set II

O1 crowd set 2
02 Sand >
03 Chalk Dust Torture >
04 Ghost >
05 Backwards Down the Number Line >
06 Simple >
07 Split Open and Melt
08 encore break
09 Julius

;flac fingerprints generated by xACT 2.43 on 2017-12-30 16:43:49 +0000

ph2017-12-29.mk41v.sxr4.1644.s1t01.flac:434a505572385dc0f907433e0177eeda
ph2017-12-29.mk41v.sxr4.1644.s1t02.flac:f419f42843b96d287e1c20edbf729e54
ph2017-12-29.mk41v.sxr4.1644.s1t03.flac:5990c480a3ab51caefe98a38a0d94c5d
ph2017-12-29.mk41v.sxr4.1644.s1t04.flac:98124faec9b642156786d35fc36fd23d
ph2017-12-29.mk41v.sxr4.1644.s1t05.flac:17b645d37feeff6373d62adf06e3f9cb
ph2017-12-29.mk41v.sxr4.1644.s1t06.flac:2bd2d6e5fd5a8f5bd8ba8399d6162b4b
ph2017-12-29.mk41v.sxr4.1644.s1t07.flac:21ea487b74b961eddd7d0557c78ddbff
ph2017-12-29.mk41v.sxr4.1644.s1t08.flac:ec513a6cb60655c03c5bce74155ef9ec
ph2017-12-29.mk41v.sxr4.1644.s1t09.flac:3d531f054256fb1e98364cdedf6adaa8
ph2017-12-29.mk41v.sxr4.1644.s1t10.flac:b46aa71f85ccf8bb63ca373884a4a21e
ph2017-12-29.mk41v.sxr4.1644.s2t01.flac:9e467efb6848c7dcd870f4323822a250
ph2017-12-29.mk41v.sxr4.1644.s2t02.flac:ff385a52c7e1433297d6e8568c3266f2
ph2017-12-29.mk41v.sxr4.1644.s2t03.flac:a61810a87a6790b10d92dbb691f2ca82
ph2017-12-29.mk41v.sxr4.1644.s2t04.flac:4f0c99c057b8fab94e0a4b971f23e0a5
ph2017-12-29.mk41v.sxr4.1644.s2t05.flac:58ee70559a4f404ffcbcc64a439eddc7
ph2017-12-29.mk41v.sxr4.1644.s2t06.flac:707b4fccb6925d78a61043367d3ee48f
ph2017-12-29.mk41v.sxr4.1644.s2t07.flac:fe1307d18a9fea725b06d5cf305893be
ph2017-12-29.mk41v.sxr4.1644.s2t08.flac:150ce7abfa907ee1e809714c37c0765f
ph2017-12-29.mk41v.sxr4.1644.s2t09.flac:488da2bf890a90a4218a0d3840251c0f

length expanded size cdr WAVE problems fmt ratio filename
0:45.41 8034476 B --- -- ----- wav 1.0000 ph2017-12-29.mk41v.sxr4.1644.s1t01.wav
5:08.45 54437084 B --- -- ----- wav 1.0000 ph2017-12-29.mk41v.sxr4.1644.s1t02.wav
12:07.06 128256956 B --- -- ----- wav 1.0000 ph2017-12-29.mk41v.sxr4.1644.s1t03.wav
7:02.23 74494940 B --- -- ----- wav 1.0000 ph2017-12-29.mk41v.sxr4.1644.s1t04.wav
10:59.69 116409932 B --- -- ----- wav 1.0000 ph2017-12-29.mk41v.sxr4.1644.s1t05.wav
6:57.61 73702316 B --- -- ----- wav 1.0000 ph2017-12-29.mk41v.sxr4.1644.s1t06.wav
5:56.13 62829020 B --- -- ----- wav 1.0000 ph2017-12-29.mk41v.sxr4.1644.s1t07.wav
8:37.58 91335260 B --- -- ----- wav 1.0000 ph2017-12-29.mk41v.sxr4.1644.s1t08.wav
10:38.06 112557356 B --- -- ----- wav 1.0000 ph2017-12-29.mk41v.sxr4.1644.s1t09.wav
13:08.16 139040876 B --- -- ----- wav 1.0000 ph2017-12-29.mk41v.sxr4.1644.s1t10.wav
1:08.27 12058748 B --- -- ----- wav 1.0000 ph2017-12-29.mk41v.sxr4.1644.s2t01.wav
10:34.10 111861164 B --- -- ----- wav 1.0000 ph2017-12-29.mk41v.sxr4.1644.s2t02.wav
20:49.55 220453004 B --- -- ----- wav 1.0000 ph2017-12-29.mk41v.sxr4.1644.s2t03.wav
10:38.72 112712588 B --- -- ----- wav 1.0000 ph2017-12-29.mk41v.sxr4.1644.s2t04.wav
7:56.62 84112268 B --- -- ----- wav 1.0000 ph2017-12-29.mk41v.sxr4.1644.s2t05.wav
7:30.73 79551740 B --- -- ----- wav 1.0000 ph2017-12-29.mk41v.sxr4.1644.s2t06.wav
13:05.10 138497564 B --- -- ----- wav 1.0000 ph2017-12-29.mk41v.sxr4.1644.s2t07.wav
3:17.30 34821404 B --- -- ----- wav 1.0000 ph2017-12-29.mk41v.sxr4.1644.s2t08.wav
9:17.30 98325404 B --- -- ----- wav 1.0000 ph2017-12-29.mk41v.sxr4.1644.s2t09.wav
165:40.32 1753492100 B 1.0000 (19 files)
Show Checksums
ffp
ph2017-12-29.mk41v.sxr4.1644.s1t01.flac:434a505572385dc0f907433e0177eeda
ph2017-12-29.mk41v.sxr4.1644.s1t02.flac:f419f42843b96d287e1c20edbf729e54
ph2017-12-29.mk41v.sxr4.1644.s1t03.flac:5990c480a3ab51caefe98a38a0d94c5d
ph2017-12-29.mk41v.sxr4.1644.s1t04.flac:98124faec9b642156786d35fc36fd23d
ph2017-12-29.mk41v.sxr4.1644.s1t05.flac:17b645d37feeff6373d62adf06e3f9cb
ph2017-12-29.mk41v.sxr4.1644.s1t06.flac:2bd2d6e5fd5a8f5bd8ba8399d6162b4b
ph2017-12-29.mk41v.sxr4.1644.s1t07.flac:21ea487b74b961eddd7d0557c78ddbff
ph2017-12-29.mk41v.sxr4.1644.s1t08.flac:ec513a6cb60655c03c5bce74155ef9ec
ph2017-12-29.mk41v.sxr4.1644.s1t09.flac:3d531f054256fb1e98364cdedf6adaa8
ph2017-12-29.mk41v.sxr4.1644.s1t10.flac:b46aa71f85ccf8bb63ca373884a4a21e
ph2017-12-29.mk41v.sxr4.1644.s2t01.flac:9e467efb6848c7dcd870f4323822a250
ph2017-12-29.mk41v.sxr4.1644.s2t02.flac:ff385a52c7e1433297d6e8568c3266f2
ph2017-12-29.mk41v.sxr4.1644.s2t03.flac:a61810a87a6790b10d92dbb691f2ca82
ph2017-12-29.mk41v.sxr4.1644.s2t04.flac:4f0c99c057b8fab94e0a4b971f23e0a5
ph2017-12-29.mk41v.sxr4.1644.s2t05.flac:58ee70559a4f404ffcbcc64a439eddc7
ph2017-12-29.mk41v.sxr4.1644.s2t06.flac:707b4fccb6925d78a61043367d3ee48f
ph2017-12-29.mk41v.sxr4.1644.s2t07.flac:fe1307d18a9fea725b06d5cf305893be
ph2017-12-29.mk41v.sxr4.1644.s2t08.flac:150ce7abfa907ee1e809714c37c0765f
ph2017-12-29.mk41v.sxr4.1644.s2t09.flac:488da2bf890a90a4218a0d3840251c0f

Comments
Add Comment
Other Sources (comments)
flac24 48 ... (0) flac16 44.1khz ... (0) flac24 48khz ... (0) flac24 96khz ... (0) flac24 48khz ... (0) flac16 44.1khz ... (0) flac24 96khz ... (0) flac24 96khz ... (0) flac24 96khz ... (0) flac16 44.1kHz... (0) flac24 96kHz Schoeps... (0) flac16 44.1khz DPA... (0) flac16 48kHz Source:... (0)
Date User Comment