Browse Collections Artists Sources   Search Dates

Add Show    List Management    Help


Phish 12/30/17
Madison Square Garden, New York, NY
Comments Add Comment    Source Collectors    Add to Collection    Add to Want List    History
Source # 140417 Other Sources
Entered by Matt Vernon
Checksums ffp
Disc Counts 0 / 0
Media Size
Date Circulated
Date Added
12/31/2017
12/31/2017
Source Summary flac16 44.1khz Location: OTS/ DFC (Section 2, Row 6, Seat 10). Source: Schoeps mk41v (~70° @ 21cm)>kc5>cmc6>Sonosax SX-R4(24bit/96khz). Transfer: Sonosax SX-R4>USB-C>MacBook Pro>Pro Tools 12(normalizing)>Audacity(tracking, fades)>Sony Soundforge Convrt(resample(izotope,highest settings)/dither(mbit+/ultra, high dither)to 16 bit/44.1k)>XAct(FLAC 8,ffp,fix sbe,tagging). Recorded and Transferred by Andy Murray  
Source Information - Download Text | Download Zip
hish
Madison Square Garden
New York, NY
December 30, 2017

Location: OTS/ DFC (Section 2, Row 6, Seat 10)
Source: Schoeps mk41v (~70° @ 21cm)>kc5>cmc6>Sonosax SX-R4(24bit/96khz)
Transfer: Sonosax SX-R4>USB-C>MacBook Pro>Pro Tools 12(normalizing)>Audacity(tracking, fades)>Sony Soundforge Convrt(resample(izotope,highest settings)/dither(mbit+/ultra, high dither)to 16 bit/44.1k)>XAct(FLAC 8,ffp,fix sbe,tagging)

Recorded and Transferred by Andy Murray

Set I

01 Intro
02 Mike's Song >
03 I Am Hydrogen >
04 Weekapaug Groove
05 Tweezer >
06 Ass Handed
07 Kill Devil Falls >
08 Bathtub Gin
09 Brother
10 More

Set II

01 Intro
02 Down With Disease >
03 Steam >
04 Light >
05 Farmhouse >
06 Run Like An Antelope
07 Encore Break
08 Sleeping Monkey >
09 Tweezer Reprise

;flac fingerprints generated by xACT 2.43 on 2017-12-31 16:22:09 +0000

ph2017-12-30.mk41v.sxr4.1644.s1t01.flac:1624da04301ffc1ffb3ddbeedeefcf36
ph2017-12-30.mk41v.sxr4.1644.s1t02.flac:76950487e5db02e81962330bfcc5bc9c
ph2017-12-30.mk41v.sxr4.1644.s1t03.flac:321e6261e2013ce3172b2e117dfe15ae
ph2017-12-30.mk41v.sxr4.1644.s1t04.flac:ab4e473935ff9b18e0855d5a778e5de7
ph2017-12-30.mk41v.sxr4.1644.s1t05.flac:d9b67635e6148df9e0ba61faf233eef0
ph2017-12-30.mk41v.sxr4.1644.s1t06.flac:96293256a7db1e621cc280d068e750a7
ph2017-12-30.mk41v.sxr4.1644.s1t07.flac:59319d6a36945354e56978719d70a941
ph2017-12-30.mk41v.sxr4.1644.s1t08.flac:5b7180eb49cf5adfe943cbff7d5e0324
ph2017-12-30.mk41v.sxr4.1644.s1t09.flac:88619c592330143dca2e99183351920a
ph2017-12-30.mk41v.sxr4.1644.s1t10.flac:33e4d2172d8d576bfb3307c64ec42104
ph2017-12-30.mk41v.sxr4.1644.s2t01.flac:8097dcea70be62fda73a0c341ac2b4e7
ph2017-12-30.mk41v.sxr4.1644.s2t02.flac:78b71db1ef1bbd7fef5fe516760f35ab
ph2017-12-30.mk41v.sxr4.1644.s2t03.flac:7aca7054141ac1cd2be2d458276d8576
ph2017-12-30.mk41v.sxr4.1644.s2t04.flac:8afc8407706fb46ba5ed0d0d02581373
ph2017-12-30.mk41v.sxr4.1644.s2t05.flac:3c1dbee4dbe031210367b6787707032a
ph2017-12-30.mk41v.sxr4.1644.s2t06.flac:bcd1b1a1e67314ada2169a56af45b1c0
ph2017-12-30.mk41v.sxr4.1644.s2t07.flac:3cbc5712fcd3d904877375997210147b
ph2017-12-30.mk41v.sxr4.1644.s2t08.flac:cc0cfe80c178627102483c4842b736d4
ph2017-12-30.mk41v.sxr4.1644.s2t09.flac:43f909e464ccbbf724ea31b3042ef35e

length expanded size cdr WAVE problems fmt ratio filename
1:00.50 10701644 B --- -- ----- wav 1.0000 ph2017-12-30.mk41v.sxr4.1644.s1t01.wav
8:00.62 84817868 B --- -- ----- wav 1.0000 ph2017-12-30.mk41v.sxr4.1644.s1t02.wav
3:22.49 35748092 B --- -- ----- wav 1.0000 ph2017-12-30.mk41v.sxr4.1644.s1t03.wav
8:15.58 87454460 B --- -- ----- wav 1.0000 ph2017-12-30.mk41v.sxr4.1644.s1t04.wav
19:31.18 206606780 B --- -- ----- wav 1.0000 ph2017-12-30.mk41v.sxr4.1644.s1t05.wav
1:31.38 16141820 B --- -- ----- wav 1.0000 ph2017-12-30.mk41v.sxr4.1644.s1t06.wav
7:43.06 81687356 B --- -- ----- wav 1.0000 ph2017-12-30.mk41v.sxr4.1644.s1t07.wav
14:51.00 157172444 B --- -- ----- wav 1.0000 ph2017-12-30.mk41v.sxr4.1644.s1t08.wav
7:42.39 81588572 B --- -- ----- wav 1.0000 ph2017-12-30.mk41v.sxr4.1644.s1t09.wav
7:11.30 76099004 B --- -- ----- wav 1.0000 ph2017-12-30.mk41v.sxr4.1644.s1t10.wav
1:15.73 13401740 B --- -- ----- wav 1.0000 ph2017-12-30.mk41v.sxr4.1644.s2t01.wav
28:11.70 298457084 B --- -- ----- wav 1.0000 ph2017-12-30.mk41v.sxr4.1644.s2t02.wav
14:16.69 151160732 B --- -- ----- wav 1.0000 ph2017-12-30.mk41v.sxr4.1644.s2t03.wav
10:54.49 115480892 B --- -- ----- wav 1.0000 ph2017-12-30.mk41v.sxr4.1644.s2t04.wav
6:53.66 73008476 B --- -- ----- wav 1.0000 ph2017-12-30.mk41v.sxr4.1644.s2t05.wav
10:19.09 109212812 B --- -- ----- wav 1.0000 ph2017-12-30.mk41v.sxr4.1644.s2t06.wav
3:34.51 37869596 B --- -- ----- wav 1.0000 ph2017-12-30.mk41v.sxr4.1644.s2t07.wav
5:01.67 53254028 B --- -- ----- wav 1.0000 ph2017-12-30.mk41v.sxr4.1644.s2t08.wav
3:49.14 40428572 B --- -- ----- wav 1.0000 ph2017-12-30.mk41v.sxr4.1644.s2t09.wav
163:28.68 1730291972 B 1.0000 (19 files)
Show Checksums
ffp
ph2017-12-30.mk41v.sxr4.1644.s1t01.flac:1624da04301ffc1ffb3ddbeedeefcf36
ph2017-12-30.mk41v.sxr4.1644.s1t02.flac:76950487e5db02e81962330bfcc5bc9c
ph2017-12-30.mk41v.sxr4.1644.s1t03.flac:321e6261e2013ce3172b2e117dfe15ae
ph2017-12-30.mk41v.sxr4.1644.s1t04.flac:ab4e473935ff9b18e0855d5a778e5de7
ph2017-12-30.mk41v.sxr4.1644.s1t05.flac:d9b67635e6148df9e0ba61faf233eef0
ph2017-12-30.mk41v.sxr4.1644.s1t06.flac:96293256a7db1e621cc280d068e750a7
ph2017-12-30.mk41v.sxr4.1644.s1t07.flac:59319d6a36945354e56978719d70a941
ph2017-12-30.mk41v.sxr4.1644.s1t08.flac:5b7180eb49cf5adfe943cbff7d5e0324
ph2017-12-30.mk41v.sxr4.1644.s1t09.flac:88619c592330143dca2e99183351920a
ph2017-12-30.mk41v.sxr4.1644.s1t10.flac:33e4d2172d8d576bfb3307c64ec42104
ph2017-12-30.mk41v.sxr4.1644.s2t01.flac:8097dcea70be62fda73a0c341ac2b4e7
ph2017-12-30.mk41v.sxr4.1644.s2t02.flac:78b71db1ef1bbd7fef5fe516760f35ab
ph2017-12-30.mk41v.sxr4.1644.s2t03.flac:7aca7054141ac1cd2be2d458276d8576
ph2017-12-30.mk41v.sxr4.1644.s2t04.flac:8afc8407706fb46ba5ed0d0d02581373
ph2017-12-30.mk41v.sxr4.1644.s2t05.flac:3c1dbee4dbe031210367b6787707032a
ph2017-12-30.mk41v.sxr4.1644.s2t06.flac:bcd1b1a1e67314ada2169a56af45b1c0
ph2017-12-30.mk41v.sxr4.1644.s2t07.flac:3cbc5712fcd3d904877375997210147b
ph2017-12-30.mk41v.sxr4.1644.s2t08.flac:cc0cfe80c178627102483c4842b736d4
ph2017-12-30.mk41v.sxr4.1644.s2t09.flac:43f909e464ccbbf724ea31b3042ef35e

Comments
Add Comment
Other Sources (comments)
flac16 44.1khz... (0) flac24 48khz ... (0) flac16 44.1khz ... (0) flac24 48khz ... (0) flac16 44.1khz ... (0) flac24 48khz... (0) flac24 96khz ... (0) flac16 44.1khz ... (0) flac24 48khz ... (0) flac16 48khz... (0) flac24 96khz ... (0) flac16 44.1khz ... (0) flac16 44.1khz ... (0) flac24 96khz ... (0) flac24 48khz ... (0) flac24 96khz ... (0) flac24 96khz ... (0) flac24 48khz ... (0) flac16 44.1khz ... (0) flac16 44.1kHz... (0) flac24 96kHz Schoeps... (0) flac16 44.1khz DPA... (0) flac16 48kHz Neumann... (0)
Date User Comment