Browse Collections Artists Sources   Search Dates

Add Show    List Management    Help


Phil Lesh & Friends 11/15/17
Riviera Theatre, Chicago, IL
Comments Add Comment    Source Collectors    Add to Collection    Add to Want List    History
Source # 140439 Other Sources
Entered by Matt Vernon
Checksums ffp
Disc Counts 0 / 0
Media Size
Date Circulated
Date Added

01/01/2018
Source Summary flac24 48khz Source: AT 4050st>dr70(bus) 24/48 Transfer: SD>Picklemacmini> Audacity 2.0.1> Xact 2.37 > FLAC Recorded and transferred: Jason "Picklemic" Loomis picklemic [email protected] gmail 
  Archive
Source Information - Download Text | Download Zip
Phil Lesh & The Terrapin Family Band
November 15th, 2017
Riviera Theatre
Chicago, IL

Source: AT 4050st>dr70(bus) 24/48
Transfer: SD>Picklemacmini> Audacity 2.0.1> Xact 2.37 > FLAC
Recorded and transferred: Jason "Picklemic" Loomis picklemic [email protected] gmail

Set 1
01. Jack Straw
02. Like A Rolling Stone
03. Bertha
04. Jack A Roe
05. Lay Down Sailor
06. Pride Of Cucamonga
07. What She Said>
08. Viola Lee Blues

Set 2
01. Eyes Of The World
02. Playing’>
03. Sultans Of Swing
04. Dark Star>
05. Bird Song>
06. Other One>
07. He’s Gone>
08. Dark Star>
09. Monkey Man>
10. Playing’
E)
11. Donor Rap
12. Ohio

Phil Lesh - bass
Ross James - guitar
Grahame Lesh - guitar
Alex Koford - drums
Karl Denson - horns/percussion
Eric Krazno - guitar

    length     expanded size    cdr  WAVE problems  fmt   ratio  filename
    15:06.971     261207782 B   cxx   --   ---xx   flac  0.6977  phil2017-11-15s1t01.flac
    15:47.341     272834318 B   cxx   --   ---xx   flac  0.7012  phil2017-11-15s1t02.flac
    11:07.553     192255170 B   cxx   --   ---xx   flac  0.7249  phil2017-11-15s1t03.flac
    13:26.626     232308320 B   cxx   --   ---xx   flac  0.6899  phil2017-11-15s1t04.flac
     8:14.483     142411250 B   cxx   --   ---xx   flac  0.7020  phil2017-11-15s1t05.flac
     8:36.117     148641740 B   cxx   --   ---xx   flac  0.7294  phil2017-11-15s1t06.flac
     6:58.186     120437642 B   cxx   --   ---xx   flac  0.7409  phil2017-11-15s1t07.flac
    10:49.975     187192898 B   cxx   --   ---xx   flac  0.7383  phil2017-11-15s1t08.flac
    22:39.899     391651040 B   cxx   --   ---xx   flac  0.7119  phil2017-11-15s2t01.flac
     9:15.739     160052918 B   cxx   --   ---xx   flac  0.7253  phil2017-11-15s2t02.flac
    10:34.173     182641790 B   cxx   --   ---xx   flac  0.7350  phil2017-11-15s2t03.flac
    14:22.225     248320928 B   cxx   --   ---xx   flac  0.6998  phil2017-11-15s2t04.flac
     9:35.500     165743918 B   cxx   --   ---xx   flac  0.7024  phil2017-11-15s2t05.flac
    12:13.967     211382462 B   cxx   --   ---xx   flac  0.7102  phil2017-11-15s2t06.flac
    11:57.070     206516312 B   cxx   --   ---xx   flac  0.7027  phil2017-11-15s2t07.flac
     4:04.741      70485428 B   cxx   --   ---xx   flac  0.7072  phil2017-11-15s2t08.flac
     5:27.687      94373780 B   cxx   --   ---xx   flac  0.7920  phil2017-11-15s2t09.flac
     3:12.516      55444610 B   cxx   --   ---xx   flac  0.7316  phil2017-11-15s2t10.flac
     4:01.669      69600674 B   cxx   --   ---xx   flac  0.6565  phil2017-11-15s2t11.flac
    10:09.292     175476206 B   cxx   --   ---xx   flac  0.7769  phil2017-11-15s2t12.flac
   207:41.730    3588979186 B                            0.7163  (20 files)

Show Checksums
ffp
phil2017-11-15s1t01.flac:ebb0c7c458038578784cd16af0869207
phil2017-11-15s1t02.flac:8921a578ae0103f798c2ebebace50e62
phil2017-11-15s1t03.flac:a4e3af6597407675c814e3d11284dc58
phil2017-11-15s1t04.flac:2ca01677cfa5287074723194f97af842
phil2017-11-15s1t05.flac:805020a960761a6baf7c1c73368a11cc
phil2017-11-15s1t06.flac:7a55b24cef410bdd748a770edada3b6b
phil2017-11-15s1t07.flac:05539e4d5f26d4dc03a144cf5e51eaae
phil2017-11-15s1t08.flac:f02bfa65fdfcb7f36ee55f0a52184f22
phil2017-11-15s2t01.flac:d1d0ac21107b0891a31d5388f48cd909
phil2017-11-15s2t02.flac:6fcf66bc45c1184f1b4a760ebf1520f9
phil2017-11-15s2t03.flac:ba7c4d547bb859db9e6a6d430c04ee92
phil2017-11-15s2t04.flac:4fa9fe197fc644173d941005eebc041f
phil2017-11-15s2t05.flac:33cdaefae0fcfd42679f5a5ada828855
phil2017-11-15s2t06.flac:8b8a73d7168fd12e356c29263add10e0
phil2017-11-15s2t07.flac:62b5531bacea492d96c4193b989ee470
phil2017-11-15s2t08.flac:d381fa3a8190afbaf951ed52459243d3
phil2017-11-15s2t09.flac:86438f4909e8008b04f07383edf2debe
phil2017-11-15s2t10.flac:dc154d45fb8c7be83383e7bb0bff8f66
phil2017-11-15s2t11.flac:2568cac0dc9d8215efd98fda240b61e9
phil2017-11-15s2t12.flac:d89c297db855b84ec3bff12185d4b30c

Comments
Add Comment
Other Sources (comments)
flac16 44.1khz ... (0) flac24 48khz ... (0)
Date User Comment