Browse Collections Artists Sources   Search Dates

Add Show    List Management    Help


Grateful Dead 10/29/80
Radio City Music Hall, New York, NY
Comments Add Comment    Source Collectors    Add to Collection    Add to Want List    History
Source # 140496 Other Sources
Entered by Matt Vernon
Checksums ffp , flac-md5
Disc Counts 0 / 0
Media Size Compressed: 158.23 MB (165920768 bytes)
Date Circulated
Date Added
01/06/2018
01/06/2018
Source Summary flac16; partial set 1 source: sbd 2nd gen cassette; Jerry Moore’s copy; nakamichi dragon/c > benchmark adc1 @ 24/96 > adobe audition cc > fission > xACT; transferred & seeded by Rob Berger 
  Archive
Source Information - Download Text | Download Zip
Grateful Dead
10/29/80 partial
Radio City Music Hall,
NYC


source: sbd 2nd gen cassette
Jerry Moore’s copy

nakamichi dragon/c > benchmark adc1 @ 24/96 >
adobe audition cc > fission > xACT
transferred & seeded by Rob Berger 12/2017

Notes:
-- This file set is 16 bit


set I
(dire wolf - missing)
(on the road again - missing)
(it must’ve been the roses - missing)

01 - The Race Is On
02 - Bird Song
03 - Heaven Help The Fool
04 - Babe It Ain’t No Lie
05 - Ripple

    length     expanded size    cdr  WAVE problems  fmt   ratio  filename
     5:33.45       58847084 B   ---   --   ---xx   flac  0.4719  gd1980-10-29s1t01.flac
     9:29.05      100383404 B   ---   --   ---xx   flac  0.4527  gd1980-10-29s1t02.flac
     7:10.70       76016684 B   ---   --   ---xx   flac  0.4772  gd1980-10-29s1t03.flac
     8:03.59       85340012 B   ---   --   ---xx   flac  0.3743  gd1980-10-29s1t04.flac
     4:47.47       50737388 B   ---   --   ---xx   flac  0.4825  gd1980-10-29s1t05.flac
    35:05.01      371324572 B                            0.4468  (5 files)



Show Checksums
ffp
gd1980-10-29s1t01.flac:eca70784d44b5810af42071bd8c5769c
gd1980-10-29s1t02.flac:7a4fd94914337d6be5283805d20220a2
gd1980-10-29s1t03.flac:e6d0f67661ff2d6030b2da16b1d3b51d
gd1980-10-29s1t04.flac:8700c649ca52bec52df93a94fa8276bf
gd1980-10-29s1t05.flac:d286035270fb90e053209d7492d39adc
flac-md5
8b416db6a0027cf6f424f800432b7341 *gd1980-10-29s1t01.flac
979a69a729c42bbe5861150f9f137987 *gd1980-10-29s1t02.flac
84f4dff188a4ebeda51fd2d53625a74b *gd1980-10-29s1t03.flac
44afd48add26967a09a794e355c14e8f *gd1980-10-29s1t04.flac
0627baa8befc8fee1f68239cff49a615 *gd1980-10-29s1t05.flac

Comments
Add Comment
Other Sources (comments)
Recording by Jim Wise:... (2) flac16; **Partial... (0) flac16; Seamless... (1) flac16; Recording... (0) flac16; Loge Dead... (1) flac16; Partial... (0) flac16; AUD: 2x... (0) flac16; Partial Sets... (0) flac24; partial set... (0) flac16; SBD DAT->... (0)
Date User Comment