Browse Collections Artists Sources   Search Dates

Add Show    List Management    Help


Phish 12/31/17
Madison Square Garden, New York, NY
Comments Add Comment    Source Collectors    Add to Collection    Add to Want List    History
Source # 140501 Other Sources
Entered by Matt Vernon
Checksums ffp
Disc Counts 0 / 0
Media Size
Date Circulated
Date Added
01/06/2018
01/06/2018
Source Summary flac16 44.1khz Location: OTS/ DFC (Section 2, Row 6, Seat 10). Source: Schoeps mk41v (~70° @ 21cm)>kc5>cmc6>Sonosax SX-R4(24bit/96khz). Transfer: Sonosax SX-R4>USB-C>MacBook Pro>Pro Tools. 12(normalizing)>Audacity(tracking, fades,soft limit to set 3 to bring down cannon booms)>Sony Soundforge Convrt(resample(izotope,highest settings)/dither(mbit+/ultra, high dither)to 16 bit/44.1k)>XAct(FLAC 8,ffp,fix sbe,tagging). Recorded and Transferred by Andy Murray 
Source Information - Download Text | Download Zip
Phish
Madison Square Garden
New York, NY
December 31, 2017

Location: OTS/ DFC (Section 2, Row 6, Seat 10)
Source: Schoeps mk41v (~70° @ 21cm)>kc5>cmc6>Sonosax SX-R4(24bit/96khz)
Transfer: Sonosax SX-R4>USB-C>MacBook Pro>Pro Tools 12(normalizing)>Audacity(tracking, fades,soft limit to set 3 to bring down cannon booms)>Sony Soundforge Convrt(resample(izotope,highest settings)/dither(mbit+/ultra, high dither)to 16 bit/44.1k)>XAct(FLAC 8,ffp,fix sbe,tagging)

Recorded and Transferred by Andy Murray

Set I:

01 Intro
02 Carini >
03 Suzy Greenburg
04 My Friend, My Friend
05 Fluffhead
06 Reba >
07 Poor Heart >
08 46 Days >
09 Maze >
10 Character Zero

Set II

01 Intro
02 Possum >
03 Fuego ->
04 Gotta Jibboo
05 Golgi Apparatus >
06 What's the Use? >
07 You Enjoy Myself

Set III

01 Intro
02 Soul Planet>
03 Auld Lang Syne>
04 Free
05 A Song I Heard the Ocean Sing>
06 Moma Dance>
07 Prince Caspian>
08 Wading in the Velvet Sea
09 First Tube
10 Encore Break
11 Loving Cup

;flac fingerprints generated by xACT 2.43 on 2018-01-06 22:14:25 +0000

ph2017-12-31.mk41v.sxr4.1644.s1t01.flac:e6c03a26dcce60c590cbe0ba0124bd78
ph2017-12-31.mk41v.sxr4.1644.s1t02.flac:da92cb866512233d8a0c969e68255f62
ph2017-12-31.mk41v.sxr4.1644.s1t03.flac:98d8f00c70b73b26af4568a7147da679
ph2017-12-31.mk41v.sxr4.1644.s1t04.flac:2966c60b95ee7f89ec8b26b1920c4256
ph2017-12-31.mk41v.sxr4.1644.s1t05.flac:d48d240f2c2f99ab66dd537cff1891c8
ph2017-12-31.mk41v.sxr4.1644.s1t06.flac:23515a56a40c14c00f41c770130adbf9
ph2017-12-31.mk41v.sxr4.1644.s1t07.flac:b3c7bfe2e3cf92e1d0ae6a2ae3f4439d
ph2017-12-31.mk41v.sxr4.1644.s1t08.flac:3e024e6ff66efcafc899b8df38722c45
ph2017-12-31.mk41v.sxr4.1644.s1t09.flac:10d7bc22ae072796cae833e9349b71da
ph2017-12-31.mk41v.sxr4.1644.s1t10.flac:fdae790d7cbbc68a53813949822c6f40
ph2017-12-31.mk41v.sxr4.1644.s2t01.flac:08faca1aaa501de4561cd14de93ac10b
ph2017-12-31.mk41v.sxr4.1644.s2t02.flac:f8001cde71017564d065fdbe10f2883b
ph2017-12-31.mk41v.sxr4.1644.s2t03.flac:2dcb98241bac8a3423b6453c446d2def
ph2017-12-31.mk41v.sxr4.1644.s2t04.flac:161f1e68c70c52611f5706dbc2a265ad
ph2017-12-31.mk41v.sxr4.1644.s2t05.flac:9d3dc4fd8ef54de13f7b871a4d75e0d9
ph2017-12-31.mk41v.sxr4.1644.s2t06.flac:d37403c79330f17712258f56e5ba8981
ph2017-12-31.mk41v.sxr4.1644.s2t07.flac:9034596eca1440c70321c5b8d28d1d5d
ph2017-12-31.mk41v.sxr4.1644.s3t01.flac:dd55b4b4f4a13b8032758e04d765341f
ph2017-12-31.mk41v.sxr4.1644.s3t02.flac:6df4c76396ebcb898f6c1d35a36c10c0
ph2017-12-31.mk41v.sxr4.1644.s3t03.flac:f5ae3ca340b94c7b69b93f1adf8ca5fb
ph2017-12-31.mk41v.sxr4.1644.s3t04.flac:967ff2271615ac554a7aa279ba629fd9
ph2017-12-31.mk41v.sxr4.1644.s3t05.flac:db228746f163e929993b77beed7acc4f
ph2017-12-31.mk41v.sxr4.1644.s3t06.flac:488a8dcd094dba0af99375c5519a9846
ph2017-12-31.mk41v.sxr4.1644.s3t07.flac:af588c1b76711c3230031a7e4b534d91
ph2017-12-31.mk41v.sxr4.1644.s3t08.flac:36168a735559a336f36aa020ccb91603
ph2017-12-31.mk41v.sxr4.1644.s3t09.flac:55f030524507c681f5ed97f0894ffad3
ph2017-12-31.mk41v.sxr4.1644.s3t10.flac:15b2853aa867584b9c49c8a4121001da
ph2017-12-31.mk41v.sxr4.1644.s3t11.flac:32314b517417a37eb2465ff68a1c83b2

length expanded size cdr WAVE problems fmt ratio filename
0:58.03 10238300 B --- -- ----- wav 1.0000 ph2017-12-31.mk41v.sxr4.1644.s1t01.wav
10:44.69 113763932 B --- -- ----- wav 1.0000 ph2017-12-31.mk41v.sxr4.1644.s1t02.wav
6:22.23 67438940 B --- -- ----- wav 1.0000 ph2017-12-31.mk41v.sxr4.1644.s1t03.wav
6:09.38 65181020 B --- -- ----- wav 1.0000 ph2017-12-31.mk41v.sxr4.1644.s1t04.wav
16:49.38 178077020 B --- -- ----- wav 1.0000 ph2017-12-31.mk41v.sxr4.1644.s1t05.wav
14:19.66 151682876 B --- -- ----- wav 1.0000 ph2017-12-31.mk41v.sxr4.1644.s1t06.wav
2:42.56 28708556 B --- -- ----- wav 1.0000 ph2017-12-31.mk41v.sxr4.1644.s1t07.wav
8:10.53 86560700 B --- -- ----- wav 1.0000 ph2017-12-31.mk41v.sxr4.1644.s1t08.wav
10:16.37 108749468 B --- -- ----- wav 1.0000 ph2017-12-31.mk41v.sxr4.1644.s1t09.wav
6:28.50 68560844 B --- -- ----- wav 1.0000 ph2017-12-31.mk41v.sxr4.1644.s1t10.wav
0:35.26 6235196 B --- -- ----- wav 1.0000 ph2017-12-31.mk41v.sxr4.1644.s2t01.wav
8:41.63 92052620 B --- -- ----- wav 1.0000 ph2017-12-31.mk41v.sxr4.1644.s2t02.wav
13:58.37 147910268 B --- -- ----- wav 1.0000 ph2017-12-31.mk41v.sxr4.1644.s2t03.wav
14:57.74 158404892 B --- -- ----- wav 1.0000 ph2017-12-31.mk41v.sxr4.1644.s2t04.wav
4:59.16 52781276 B --- -- ----- wav 1.0000 ph2017-12-31.mk41v.sxr4.1644.s2t05.wav
6:45.74 71616092 B --- -- ----- wav 1.0000 ph2017-12-31.mk41v.sxr4.1644.s2t06.wav
21:50.61 231227516 B --- -- ----- wav 1.0000 ph2017-12-31.mk41v.sxr4.1644.s2t07.wav
0:49.06 8657756 B --- -- ----- wav 1.0000 ph2017-12-31.mk41v.sxr4.1644.s3t01.wav
13:41.38 144913820 B --- -- ----- wav 1.0000 ph2017-12-31.mk41v.sxr4.1644.s3t02.wav
1:16.48 13519340 B --- -- ----- wav 1.0000 ph2017-12-31.mk41v.sxr4.1644.s3t03.wav
8:22.57 88686908 B --- -- ----- wav 1.0000 ph2017-12-31.mk41v.sxr4.1644.s3t04.wav
18:54.17 200077628 B --- -- ----- wav 1.0000 ph2017-12-31.mk41v.sxr4.1644.s3t05.wav
8:26.53 89383100 B --- -- ----- wav 1.0000 ph2017-12-31.mk41v.sxr4.1644.s3t06.wav
5:02.73 53444540 B --- -- ----- wav 1.0000 ph2017-12-31.mk41v.sxr4.1644.s3t07.wav
6:12.15 65656124 B --- -- ----- wav 1.0000 ph2017-12-31.mk41v.sxr4.1644.s3t08.wav
7:54.74 83787692 B --- -- ----- wav 1.0000 ph2017-12-31.mk41v.sxr4.1644.s3t09.wav
3:50.25 40630844 B --- -- ----- wav 1.0000 ph2017-12-31.mk41v.sxr4.1644.s3t10.wav
7:27.67 79008428 B --- -- ----- wav 1.0000 ph2017-12-31.mk41v.sxr4.1644.s3t11.wav
236:51.57 2506955696 B 1.0000 (28 files)
Show Checksums
ffp
ph2017-12-31.mk41v.sxr4.1644.s1t01.flac:e6c03a26dcce60c590cbe0ba0124bd78
ph2017-12-31.mk41v.sxr4.1644.s1t02.flac:da92cb866512233d8a0c969e68255f62
ph2017-12-31.mk41v.sxr4.1644.s1t03.flac:98d8f00c70b73b26af4568a7147da679
ph2017-12-31.mk41v.sxr4.1644.s1t04.flac:2966c60b95ee7f89ec8b26b1920c4256
ph2017-12-31.mk41v.sxr4.1644.s1t05.flac:d48d240f2c2f99ab66dd537cff1891c8
ph2017-12-31.mk41v.sxr4.1644.s1t06.flac:23515a56a40c14c00f41c770130adbf9
ph2017-12-31.mk41v.sxr4.1644.s1t07.flac:b3c7bfe2e3cf92e1d0ae6a2ae3f4439d
ph2017-12-31.mk41v.sxr4.1644.s1t08.flac:3e024e6ff66efcafc899b8df38722c45
ph2017-12-31.mk41v.sxr4.1644.s1t09.flac:10d7bc22ae072796cae833e9349b71da
ph2017-12-31.mk41v.sxr4.1644.s1t10.flac:fdae790d7cbbc68a53813949822c6f40
ph2017-12-31.mk41v.sxr4.1644.s2t01.flac:08faca1aaa501de4561cd14de93ac10b
ph2017-12-31.mk41v.sxr4.1644.s2t02.flac:f8001cde71017564d065fdbe10f2883b
ph2017-12-31.mk41v.sxr4.1644.s2t03.flac:2dcb98241bac8a3423b6453c446d2def
ph2017-12-31.mk41v.sxr4.1644.s2t04.flac:161f1e68c70c52611f5706dbc2a265ad
ph2017-12-31.mk41v.sxr4.1644.s2t05.flac:9d3dc4fd8ef54de13f7b871a4d75e0d9
ph2017-12-31.mk41v.sxr4.1644.s2t06.flac:d37403c79330f17712258f56e5ba8981
ph2017-12-31.mk41v.sxr4.1644.s2t07.flac:9034596eca1440c70321c5b8d28d1d5d
ph2017-12-31.mk41v.sxr4.1644.s3t01.flac:dd55b4b4f4a13b8032758e04d765341f
ph2017-12-31.mk41v.sxr4.1644.s3t02.flac:6df4c76396ebcb898f6c1d35a36c10c0
ph2017-12-31.mk41v.sxr4.1644.s3t03.flac:f5ae3ca340b94c7b69b93f1adf8ca5fb
ph2017-12-31.mk41v.sxr4.1644.s3t04.flac:967ff2271615ac554a7aa279ba629fd9
ph2017-12-31.mk41v.sxr4.1644.s3t05.flac:db228746f163e929993b77beed7acc4f
ph2017-12-31.mk41v.sxr4.1644.s3t06.flac:488a8dcd094dba0af99375c5519a9846
ph2017-12-31.mk41v.sxr4.1644.s3t07.flac:af588c1b76711c3230031a7e4b534d91
ph2017-12-31.mk41v.sxr4.1644.s3t08.flac:36168a735559a336f36aa020ccb91603
ph2017-12-31.mk41v.sxr4.1644.s3t09.flac:55f030524507c681f5ed97f0894ffad3
ph2017-12-31.mk41v.sxr4.1644.s3t10.flac:15b2853aa867584b9c49c8a4121001da
ph2017-12-31.mk41v.sxr4.1644.s3t11.flac:32314b517417a37eb2465ff68a1c83b2

Comments
Add Comment
Other Sources (comments)
flac24 48khz ... (0) flac16 44.1khz ... (0) flac16 44.1khz ... (0) flac24 48khz ... (0) flac24 48khz ... (0) flac16 44.1khz ... (0) flac24 48khz ... (0) flac16 44.1khz... (0) flac16 48khz... (0) flac24 96khz ... (0) flac24 96khz... (0) flac16 44.1khz ... (0) flac24 96khz ... (0) flac24 96khz ... (0) flac24 96khz ... (0) flac16 44.1kHz... (0) flac24 96kHz Schoeps... (0) flac24 48khz ... (0) flac16 48kHz Neumann... (0)
Date User Comment