Browse Collections Artists Sources   Search Dates

Add Show    List Management    Help


Phish 12/31/17
Madison Square Garden, New York, NY
Comments Add Comment    Source Collectors    Add to Collection    Add to Want List    History
Source # 140503 Other Sources
Entered by Matt Vernon
Checksums ffp
Disc Counts 0 / 0
Media Size
Date Circulated
Date Added
01/06/2018
01/06/2018
Source Summary flac16 44.1khz Location: OTS/ DFC (Section 2, Row 6, Seat 10). Source: Schoeps mk22 (~60° @ 31cm)>nbob actives>Naiant PFAs>Sonosax SX-R4(24bit/96khz) Transfer: Sonosax SX-R4>USB-C>MacBook Pro>Pro Tools. 12(normalizing)>Audacity(tracking, fades,soft limit to set 3 to bring down cannon booms)>Sony Soundforge Convrt(resample(izotope,highest settings)/dither(mbit+/ultra, high dither)to 16 bit/44.1k)>XAct(FLAC 8,ffp,fix sbe,tagging). Recorded and Transferred by Andy Murray. 
Source Information - Download Text | Download Zip
Phish
Madison Square Garden
New York, NY
December 31, 2017

Location: OTS/ DFC (Section 2, Row 6, Seat 10)
Source: Schoeps mk22 (~60° @ 31cm)>nbob actives>Naiant PFAs>Sonosax SX-R4(24bit/96khz)
Transfer: Sonosax SX-R4>USB-C>MacBook Pro>Pro Tools 12(normalizing)>Audacity(tracking, fades,soft limit to set 3 to bring down cannon booms)>Sony Soundforge Convrt(resample(izotope,highest settings)/dither(mbit+/ultra, high dither)to 16 bit/44.1k)>XAct(FLAC 8,ffp,fix sbe,tagging)

Recorded and Transferred by Andy Murray

Set I:

01 Intro
02 Carini >
03 Suzy Greenburg
04 My Friend, My Friend
05 Fluffhead
06 Reba >
07 Poor Heart >
08 46 Days >
09 Maze >
10 Character Zero

Set II

01 Intro
02 Possum >
03 Fuego ->
04 Gotta Jibboo
05 Golgi Apparatus >
06 What's the Use? >
07 You Enjoy Myself

Set III

01 Intro
02 Soul Planet>
03 Auld Lang Syne>
04 Free
05 A Song I Heard the Ocean Sing>
06 Moma Dance>
07 Prince Caspian>
08 Wading in the Velvet Sea
09 First Tube
10 Encore Break
11 Loving Cup

;flac fingerprints generated by xACT 2.43 on 2018-01-06 22:20:25 +0000

ph2017-12-31.mk22.sxr4.1644.s1t01.flac:9cfd3927c5d881560b6fdcf358a22f2e
ph2017-12-31.mk22.sxr4.1644.s1t02.flac:931595498bb8d6857892ac2c94be049d
ph2017-12-31.mk22.sxr4.1644.s1t03.flac:40c34bcedc532aec7c13c58d7fef7060
ph2017-12-31.mk22.sxr4.1644.s1t04.flac:5d6583a6240fd4f17b0811d07c93c344
ph2017-12-31.mk22.sxr4.1644.s1t05.flac:acbe37e9f11b2d244c165a92db77ea9e
ph2017-12-31.mk22.sxr4.1644.s1t06.flac:9f177704b6303fb4a517f8169ef15119
ph2017-12-31.mk22.sxr4.1644.s1t07.flac:05331c425188bccb5f7a1b003711698b
ph2017-12-31.mk22.sxr4.1644.s1t08.flac:04a9e0471b8d406d81142ab41f494c4d
ph2017-12-31.mk22.sxr4.1644.s1t09.flac:5544fcf448cb02b63ee1bef2d344dd33
ph2017-12-31.mk22.sxr4.1644.s1t10.flac:9f6fa8c9a2cffc851a7240bbf06588e3
ph2017-12-31.mk22.sxr4.1644.s2t01.flac:6e425602eab943eeb6e186225b53df94
ph2017-12-31.mk22.sxr4.1644.s2t02.flac:40d73ad54c2b4832a53a6847a51c6209
ph2017-12-31.mk22.sxr4.1644.s2t03.flac:dcb616c338a1540b210ba5dcc3ce077b
ph2017-12-31.mk22.sxr4.1644.s2t04.flac:bde8361f7609f4b50e906066e89e0972
ph2017-12-31.mk22.sxr4.1644.s2t05.flac:22b9a10a7053ee799f76d7f27f4d8183
ph2017-12-31.mk22.sxr4.1644.s2t06.flac:6e65c336fc9865278def72d8ae7347ba
ph2017-12-31.mk22.sxr4.1644.s2t07.flac:240933beb6f27b52c1f2cabead6db37f
ph2017-12-31.mk22.sxr4.1644.s3t01.flac:799d241f2f5cc4aa0c566a1f17f96dd2
ph2017-12-31.mk22.sxr4.1644.s3t02.flac:8aef891c9dd44b4ba23bb9f1f0c008f3
ph2017-12-31.mk22.sxr4.1644.s3t03.flac:db4e29d75ef82e8ed5f1fb06556a2929
ph2017-12-31.mk22.sxr4.1644.s3t04.flac:113a582f3104764f9529eb2411e54b98
ph2017-12-31.mk22.sxr4.1644.s3t05.flac:23f569a61b0406f1e849a5c61e29df29
ph2017-12-31.mk22.sxr4.1644.s3t06.flac:c92be00a4fa1961d20ca424b7e1352ec
ph2017-12-31.mk22.sxr4.1644.s3t07.flac:3e3788f532da2e0689cd93a8069dfe31
ph2017-12-31.mk22.sxr4.1644.s3t08.flac:a60363d613a2a39cd6e76ce7fe686c52
ph2017-12-31.mk22.sxr4.1644.s3t09.flac:85e70078b1a5b60146cc8cdbcc4a1289
ph2017-12-31.mk22.sxr4.1644.s3t10.flac:e1f1bb41dfb8d6d72efefd1460e7c204
ph2017-12-31.mk22.sxr4.1644.s3t11.flac:6703e5b4bad1d8a249b67229d2c49ebb

length expanded size cdr WAVE problems fmt ratio filename
0:58.03 10238300 B --- -- ----- wav 1.0000 ph2017-12-31.mk22.sxr4.1644.s1t01.wav
10:44.69 113763932 B --- -- ----- wav 1.0000 ph2017-12-31.mk22.sxr4.1644.s1t02.wav
6:22.23 67438940 B --- -- ----- wav 1.0000 ph2017-12-31.mk22.sxr4.1644.s1t03.wav
6:09.38 65181020 B --- -- ----- wav 1.0000 ph2017-12-31.mk22.sxr4.1644.s1t04.wav
16:49.38 178077020 B --- -- ----- wav 1.0000 ph2017-12-31.mk22.sxr4.1644.s1t05.wav
14:19.66 151682876 B --- -- ----- wav 1.0000 ph2017-12-31.mk22.sxr4.1644.s1t06.wav
2:42.56 28708556 B --- -- ----- wav 1.0000 ph2017-12-31.mk22.sxr4.1644.s1t07.wav
8:10.53 86560700 B --- -- ----- wav 1.0000 ph2017-12-31.mk22.sxr4.1644.s1t08.wav
10:16.37 108749468 B --- -- ----- wav 1.0000 ph2017-12-31.mk22.sxr4.1644.s1t09.wav
6:28.50 68560844 B --- -- ----- wav 1.0000 ph2017-12-31.mk22.sxr4.1644.s1t10.wav
0:35.26 6235196 B --- -- ----- wav 1.0000 ph2017-12-31.mk22.sxr4.1644.s2t01.wav
8:41.63 92052620 B --- -- ----- wav 1.0000 ph2017-12-31.mk22.sxr4.1644.s2t02.wav
13:58.37 147910268 B --- -- ----- wav 1.0000 ph2017-12-31.mk22.sxr4.1644.s2t03.wav
14:57.74 158404892 B --- -- ----- wav 1.0000 ph2017-12-31.mk22.sxr4.1644.s2t04.wav
4:59.16 52781276 B --- -- ----- wav 1.0000 ph2017-12-31.mk22.sxr4.1644.s2t05.wav
6:45.74 71616092 B --- -- ----- wav 1.0000 ph2017-12-31.mk22.sxr4.1644.s2t06.wav
21:50.61 231227516 B --- -- ----- wav 1.0000 ph2017-12-31.mk22.sxr4.1644.s2t07.wav
0:49.06 8657756 B --- -- ----- wav 1.0000 ph2017-12-31.mk22.sxr4.1644.s3t01.wav
13:41.38 144913820 B --- -- ----- wav 1.0000 ph2017-12-31.mk22.sxr4.1644.s3t02.wav
1:16.48 13519340 B --- -- ----- wav 1.0000 ph2017-12-31.mk22.sxr4.1644.s3t03.wav
8:22.57 88686908 B --- -- ----- wav 1.0000 ph2017-12-31.mk22.sxr4.1644.s3t04.wav
18:54.17 200077628 B --- -- ----- wav 1.0000 ph2017-12-31.mk22.sxr4.1644.s3t05.wav
8:26.53 89383100 B --- -- ----- wav 1.0000 ph2017-12-31.mk22.sxr4.1644.s3t06.wav
5:02.50 53390444 B --- -- ----- wav 1.0000 ph2017-12-31.mk22.sxr4.1644.s3t07.wav
6:12.38 65710220 B --- -- ----- wav 1.0000 ph2017-12-31.mk22.sxr4.1644.s3t08.wav
7:54.74 83787692 B --- -- ----- wav 1.0000 ph2017-12-31.mk22.sxr4.1644.s3t09.wav
3:50.25 40630844 B --- -- ----- wav 1.0000 ph2017-12-31.mk22.sxr4.1644.s3t10.wav
7:27.67 79008428 B --- -- ----- wav 1.0000 ph2017-12-31.mk22.sxr4.1644.s3t11.wav
236:51.57 2506955696 B 1.0000 (28 files)
Show Checksums
ffp
ph2017-12-31.mk22.sxr4.1644.s1t01.flac:9cfd3927c5d881560b6fdcf358a22f2e
ph2017-12-31.mk22.sxr4.1644.s1t02.flac:931595498bb8d6857892ac2c94be049d
ph2017-12-31.mk22.sxr4.1644.s1t03.flac:40c34bcedc532aec7c13c58d7fef7060
ph2017-12-31.mk22.sxr4.1644.s1t04.flac:5d6583a6240fd4f17b0811d07c93c344
ph2017-12-31.mk22.sxr4.1644.s1t05.flac:acbe37e9f11b2d244c165a92db77ea9e
ph2017-12-31.mk22.sxr4.1644.s1t06.flac:9f177704b6303fb4a517f8169ef15119
ph2017-12-31.mk22.sxr4.1644.s1t07.flac:05331c425188bccb5f7a1b003711698b
ph2017-12-31.mk22.sxr4.1644.s1t08.flac:04a9e0471b8d406d81142ab41f494c4d
ph2017-12-31.mk22.sxr4.1644.s1t09.flac:5544fcf448cb02b63ee1bef2d344dd33
ph2017-12-31.mk22.sxr4.1644.s1t10.flac:9f6fa8c9a2cffc851a7240bbf06588e3
ph2017-12-31.mk22.sxr4.1644.s2t01.flac:6e425602eab943eeb6e186225b53df94
ph2017-12-31.mk22.sxr4.1644.s2t02.flac:40d73ad54c2b4832a53a6847a51c6209
ph2017-12-31.mk22.sxr4.1644.s2t03.flac:dcb616c338a1540b210ba5dcc3ce077b
ph2017-12-31.mk22.sxr4.1644.s2t04.flac:bde8361f7609f4b50e906066e89e0972
ph2017-12-31.mk22.sxr4.1644.s2t05.flac:22b9a10a7053ee799f76d7f27f4d8183
ph2017-12-31.mk22.sxr4.1644.s2t06.flac:6e65c336fc9865278def72d8ae7347ba
ph2017-12-31.mk22.sxr4.1644.s2t07.flac:240933beb6f27b52c1f2cabead6db37f
ph2017-12-31.mk22.sxr4.1644.s3t01.flac:799d241f2f5cc4aa0c566a1f17f96dd2
ph2017-12-31.mk22.sxr4.1644.s3t02.flac:8aef891c9dd44b4ba23bb9f1f0c008f3
ph2017-12-31.mk22.sxr4.1644.s3t03.flac:db4e29d75ef82e8ed5f1fb06556a2929
ph2017-12-31.mk22.sxr4.1644.s3t04.flac:113a582f3104764f9529eb2411e54b98
ph2017-12-31.mk22.sxr4.1644.s3t05.flac:23f569a61b0406f1e849a5c61e29df29
ph2017-12-31.mk22.sxr4.1644.s3t06.flac:c92be00a4fa1961d20ca424b7e1352ec
ph2017-12-31.mk22.sxr4.1644.s3t07.flac:3e3788f532da2e0689cd93a8069dfe31
ph2017-12-31.mk22.sxr4.1644.s3t08.flac:a60363d613a2a39cd6e76ce7fe686c52
ph2017-12-31.mk22.sxr4.1644.s3t09.flac:85e70078b1a5b60146cc8cdbcc4a1289
ph2017-12-31.mk22.sxr4.1644.s3t10.flac:e1f1bb41dfb8d6d72efefd1460e7c204
ph2017-12-31.mk22.sxr4.1644.s3t11.flac:6703e5b4bad1d8a249b67229d2c49ebb

Comments
Add Comment
Other Sources (comments)
flac24 48khz ... (0) flac16 44.1khz ... (0) flac16 44.1khz ... (0) flac24 48khz ... (0) flac24 48khz ... (0) flac16 44.1khz ... (0) flac24 48khz ... (0) flac16 44.1khz... (0) flac16 48khz... (0) flac24 96khz ... (0) flac16 44.1khz... (0) flac24 96khz... (0) flac24 96khz ... (0) flac24 96khz ... (0) flac24 96khz ... (0) flac16 44.1kHz... (0) flac24 96kHz Schoeps... (0) flac24 48khz ... (0) flac16 48kHz Neumann... (0)
Date User Comment