Browse Collections Artists Sources   Search Dates

Add Show    List Management    Help


Phish 12/30/17
Madison Square Garden, New York, NY
Comments Add Comment    Source Collectors    Add to Collection    Add to Want List    History
Source # 140505 Other Sources
Entered by Matt Vernon
Checksums ffp
Disc Counts 0 / 0
Media Size
Date Circulated
Date Added
01/06/2018
01/06/2018
Source Summary flac16 44.1khz Location: OTS/ DFC (Section 2, Row 6, Seat 10). Source: Schoeps mk22 (~60° @ 31cm)>nbob actives>Naiant PFAs>Sonosax SX-R4(24bit/96khz) Transfer: Sonosax SX-R4>USB-C>MacBook Pro>Pro Tools 12(normalizing)>Audacity(tracking, fades)>Sony Soundforge Convrt(resample(izotope,highest settings)/dither(mbit+/ultra, high dither)to 16 bit/44.1k)>XAct(FLAC 8,ffp,fix sbe,tagging). Recorded and Transferred by Andy Murray. 
Source Information - Download Text | Download Zip
Phish
Madison Square Garden
New York, NY
December 30, 2017

Location: OTS/ DFC (Section 2, Row 6, Seat 10)
Source: Schoeps mk22 (~60° @ 31cm)>nbob actives>Naiant PFAs>Sonosax SX-R4(24bit/96khz)
Transfer: Sonosax SX-R4>USB-C>MacBook Pro>Pro Tools 12(normalizing)>Audacity(tracking, fades)>Sony Soundforge Convrt(resample(izotope,highest settings)/dither(mbit+/ultra, high dither)to 16 bit/44.1k)>XAct(FLAC 8,ffp,fix sbe,tagging)

Recorded and Transferred by Andy Murray

Set I

01 Intro
02 Mike's Song >
03 I Am Hydrogen >
04 Weekapaug Groove
05 Tweezer >
06 Ass Handed
07 Kill Devil Falls >
08 Bathtub Gin
09 Brother
10 More

Set II

01 Intro
02 Down With Disease >
03 Steam >
04 Light >
05 Farmhouse >
06 Run Like An Antelope
07 Encore Break
08 Sleeping Monkey >
09 Tweezer Reprise

;flac fingerprints generated by xACT 2.43 on 2017-12-31 19:37:09 +0000

ph2017-12-30.mk22.sxr4.1644.s1t01.flac:a44cc5a7e05e051a4e7bab7389b00491
ph2017-12-30.mk22.sxr4.1644.s1t02.flac:7b2886f26b7b889fcbd667c171494a85
ph2017-12-30.mk22.sxr4.1644.s1t03.flac:bb181dc6df5d05e21e6a28c1d1cec23c
ph2017-12-30.mk22.sxr4.1644.s1t04.flac:160d164d31cb5659d0aa12e877731bb5
ph2017-12-30.mk22.sxr4.1644.s1t05.flac:84df9bea85627c0b725eec589936a70a
ph2017-12-30.mk22.sxr4.1644.s1t06.flac:28bbb76206d7f750986d857f84fc1721
ph2017-12-30.mk22.sxr4.1644.s1t07.flac:3224d9b4296b3edea5e558400f6301d9
ph2017-12-30.mk22.sxr4.1644.s1t08.flac:5ab40b9924368bbafcfd014294f6babe
ph2017-12-30.mk22.sxr4.1644.s1t09.flac:1916b09b88458eb9775258d2d2aedf71
ph2017-12-30.mk22.sxr4.1644.s1t10.flac:2781d994e398f288154aacca06179b2e
ph2017-12-30.mk22.sxr4.1644.s2t01.flac:283c11318decf3ce0871f8f1227504a5
ph2017-12-30.mk22.sxr4.1644.s2t02.flac:ccb9b072982bdf414fea44ca48591eb3
ph2017-12-30.mk22.sxr4.1644.s2t03.flac:2f811a6bc7813036a6ea0ce152de213b
ph2017-12-30.mk22.sxr4.1644.s2t04.flac:be12505a8015430e5eac9876ebd202f6
ph2017-12-30.mk22.sxr4.1644.s2t05.flac:11010dad20f34cca05fe05e8c9fb298f
ph2017-12-30.mk22.sxr4.1644.s2t06.flac:4de52cc0955842d1204651fb7c5d24e2
ph2017-12-30.mk22.sxr4.1644.s2t07.flac:3f80188c142df390bfd47cae121f21d6
ph2017-12-30.mk22.sxr4.1644.s2t08.flac:8995ec7fbd3995026bf7f88fb617bed5
ph2017-12-30.mk22.sxr4.1644.s2t09.flac:b4ff0df2d14f153f2989d0c7853ecea1

length expanded size cdr WAVE problems fmt ratio filename
1:00.50 10701644 B --- -- ----- wav 1.0000 ph2017-12-30.mk22.sxr4.1644.s1t01.wav
8:00.62 84817868 B --- -- ----- wav 1.0000 ph2017-12-30.mk22.sxr4.1644.s1t02.wav
3:22.49 35748092 B --- -- ----- wav 1.0000 ph2017-12-30.mk22.sxr4.1644.s1t03.wav
8:15.58 87454460 B --- -- ----- wav 1.0000 ph2017-12-30.mk22.sxr4.1644.s1t04.wav
19:31.18 206606780 B --- -- ----- wav 1.0000 ph2017-12-30.mk22.sxr4.1644.s1t05.wav
1:31.38 16141820 B --- -- ----- wav 1.0000 ph2017-12-30.mk22.sxr4.1644.s1t06.wav
7:43.06 81687356 B --- -- ----- wav 1.0000 ph2017-12-30.mk22.sxr4.1644.s1t07.wav
14:51.00 157172444 B --- -- ----- wav 1.0000 ph2017-12-30.mk22.sxr4.1644.s1t08.wav
7:42.39 81588572 B --- -- ----- wav 1.0000 ph2017-12-30.mk22.sxr4.1644.s1t09.wav
7:11.30 76099004 B --- -- ----- wav 1.0000 ph2017-12-30.mk22.sxr4.1644.s1t10.wav
1:15.73 13401740 B --- -- ----- wav 1.0000 ph2017-12-30.mk22.sxr4.1644.s2t01.wav
28:11.70 298457084 B --- -- ----- wav 1.0000 ph2017-12-30.mk22.sxr4.1644.s2t02.wav
14:16.69 151160732 B --- -- ----- wav 1.0000 ph2017-12-30.mk22.sxr4.1644.s2t03.wav
10:54.49 115480892 B --- -- ----- wav 1.0000 ph2017-12-30.mk22.sxr4.1644.s2t04.wav
6:53.66 73008476 B --- -- ----- wav 1.0000 ph2017-12-30.mk22.sxr4.1644.s2t05.wav
10:19.09 109212812 B --- -- ----- wav 1.0000 ph2017-12-30.mk22.sxr4.1644.s2t06.wav
3:34.51 37869596 B --- -- ----- wav 1.0000 ph2017-12-30.mk22.sxr4.1644.s2t07.wav
5:01.67 53254028 B --- -- ----- wav 1.0000 ph2017-12-30.mk22.sxr4.1644.s2t08.wav
3:49.14 40428572 B --- -- ----- wav 1.0000 ph2017-12-30.mk22.sxr4.1644.s2t09.wav
163:28.68 1730291972 B 1.0000 (19 files)
Show Checksums
ffp
ph2017-12-30.mk22.sxr4.1644.s1t01.flac:a44cc5a7e05e051a4e7bab7389b00491
ph2017-12-30.mk22.sxr4.1644.s1t02.flac:7b2886f26b7b889fcbd667c171494a85
ph2017-12-30.mk22.sxr4.1644.s1t03.flac:bb181dc6df5d05e21e6a28c1d1cec23c
ph2017-12-30.mk22.sxr4.1644.s1t04.flac:160d164d31cb5659d0aa12e877731bb5
ph2017-12-30.mk22.sxr4.1644.s1t05.flac:84df9bea85627c0b725eec589936a70a
ph2017-12-30.mk22.sxr4.1644.s1t06.flac:28bbb76206d7f750986d857f84fc1721
ph2017-12-30.mk22.sxr4.1644.s1t07.flac:3224d9b4296b3edea5e558400f6301d9
ph2017-12-30.mk22.sxr4.1644.s1t08.flac:5ab40b9924368bbafcfd014294f6babe
ph2017-12-30.mk22.sxr4.1644.s1t09.flac:1916b09b88458eb9775258d2d2aedf71
ph2017-12-30.mk22.sxr4.1644.s1t10.flac:2781d994e398f288154aacca06179b2e
ph2017-12-30.mk22.sxr4.1644.s2t01.flac:283c11318decf3ce0871f8f1227504a5
ph2017-12-30.mk22.sxr4.1644.s2t02.flac:ccb9b072982bdf414fea44ca48591eb3
ph2017-12-30.mk22.sxr4.1644.s2t03.flac:2f811a6bc7813036a6ea0ce152de213b
ph2017-12-30.mk22.sxr4.1644.s2t04.flac:be12505a8015430e5eac9876ebd202f6
ph2017-12-30.mk22.sxr4.1644.s2t05.flac:11010dad20f34cca05fe05e8c9fb298f
ph2017-12-30.mk22.sxr4.1644.s2t06.flac:4de52cc0955842d1204651fb7c5d24e2
ph2017-12-30.mk22.sxr4.1644.s2t07.flac:3f80188c142df390bfd47cae121f21d6
ph2017-12-30.mk22.sxr4.1644.s2t08.flac:8995ec7fbd3995026bf7f88fb617bed5
ph2017-12-30.mk22.sxr4.1644.s2t09.flac:b4ff0df2d14f153f2989d0c7853ecea1

Comments
Add Comment
Other Sources (comments)
flac16 44.1khz... (0) flac24 48khz ... (0) flac16 44.1khz ... (0) flac24 48khz ... (0) flac16 44.1khz ... (0) flac24 48khz... (0) flac16 44.1khz ... (0) flac24 96khz ... (0) flac16 44.1khz ... (0) flac24 48khz ... (0) flac16 48khz... (0) flac24 96khz ... (0) flac16 44.1khz ... (0) flac24 96khz ... (0) flac24 48khz ... (0) flac24 96khz ... (0) flac24 96khz ... (0) flac24 48khz ... (0) flac16 44.1khz ... (0) flac16 44.1kHz... (0) flac24 96kHz Schoeps... (0) flac16 44.1khz DPA... (0) flac16 48kHz Neumann... (0)
Date User Comment