Browse Collections Artists Sources   Search Dates

Add Show    List Management    Help


Phish 12/29/17
Madison Square Garden, New York, NY
Comments Add Comment    Source Collectors    Add to Collection    Add to Want List    History
Source # 140507 Other Sources
Entered by Matt Vernon
Checksums ffp
Disc Counts 0 / 0
Media Size
Date Circulated
Date Added
01/06/2018
01/06/2018
Source Summary flac16 44.1khz Location: OTS/ DFC (Section 2, Row 6, Seat 10). Source: Schoeps mk22 (60° @ 31cm)>nbob actives>Naiant PFAs>Sonosax SX-R4(24bit/96khz) Transfer: Sonosax SX-R4>USB-C>MacBook Pro>Pro Tools 12(normalizing)>Audacity(tracking, fades)>Sony Soundforge Convrt(resample(izotope,highest settings)/dither(mbit+/ultra, high dither)to 16 bit/44.1k)>XAct(FLAC 8,ffp,fix sbe,tagging). Recorded and Transferred by Andy Murray. 
Source Information - Download Text | Download Zip
Phish
Madison Square Garden
New York, NY
December 29, 2017

Location: OTS/ DFC (Section 2, Row 6, Seat 10)
Source: Schoeps mk22 (60° @ 31cm)>nbob actives>Naiant PFAs>Sonosax SX-R4(24bit/96khz)
Transfer: Sonosax SX-R4>USB-C>MacBook Pro>Pro Tools 12(normalizing)>Audacity(tracking, fades)>Sony Soundforge Convrt(resample(izotope,highest settings)/dither(mbit+/ultra, high dither)to 16 bit/44.1k)>XAct(FLAC 8,ffp,fix sbe,tagging)

Recorded and Transferred by Andy Murray

Set I

01 crowd set 1
02 Cavern >
03 Blaze On
04 555
05 I Always Wanted It This Way >
06 Martian Monster
07 Heavy Things
08 Destiny Unbound
09 Ocelot
10 Walls of the Cave

Set II

O1 crowd set 2
02 Sand >
03 Chalk Dust Torture >
04 Ghost >
05 Backwards Down the Number Line >
06 Simple >
07 Split Open and Melt
08 encore break
09 Julius

;flac fingerprints generated by xACT 2.43 on 2017-12-31 19:26:53 +0000

ph2017-12-29.mk22.sxr4.1644.s1t01.flac:86ca2467bf2eb4b323fa6f7c655492f5
ph2017-12-29.mk22.sxr4.1644.s1t02.flac:0e31cba6af0ebacce9e4b9c82703d78a
ph2017-12-29.mk22.sxr4.1644.s1t03.flac:f0eb9bd56bbd9226bcdef008fe4bcb2c
ph2017-12-29.mk22.sxr4.1644.s1t04.flac:86166a99180241dd2e7bc2748118a36c
ph2017-12-29.mk22.sxr4.1644.s1t05.flac:76c08517dbbdc842b48fa9217a85d9f9
ph2017-12-29.mk22.sxr4.1644.s1t06.flac:5a217a1ec1f2cbcd87ed06a7c36d2c12
ph2017-12-29.mk22.sxr4.1644.s1t07.flac:5917f9345fde1ee4fbbfec88de407318
ph2017-12-29.mk22.sxr4.1644.s1t08.flac:6e35a936c4ecdb99cdd0ca920623c9f6
ph2017-12-29.mk22.sxr4.1644.s1t09.flac:1f903e7a3e9a8ac648368ad5e7057e65
ph2017-12-29.mk22.sxr4.1644.s1t10.flac:b62611ea6b9926b50613055bd4f8417d
ph2017-12-29.mk22.sxr4.1644.s2t01.flac:8b559b61459d0ae53b8cd20bcaf42fb5
ph2017-12-29.mk22.sxr4.1644.s2t02.flac:746a0677ca3703602ea95ddf1e385295
ph2017-12-29.mk22.sxr4.1644.s2t03.flac:82e25cf4bc472a70e5f2f96a3494098b
ph2017-12-29.mk22.sxr4.1644.s2t04.flac:4b1e289bbc721541d31f03fe52f5be4f
ph2017-12-29.mk22.sxr4.1644.s2t05.flac:891ade0f5554cb67c38997dca92b397b
ph2017-12-29.mk22.sxr4.1644.s2t06.flac:a88ba27711cf2353d111066180010050
ph2017-12-29.mk22.sxr4.1644.s2t07.flac:58061466822983297065c02f0789b8fa
ph2017-12-29.mk22.sxr4.1644.s2t08.flac:d57a24a34a53f55a3dd98c02f118b24d
ph2017-12-29.mk22.sxr4.1644.s2t09.flac:ffab0ee7f4a32cff8fa550035c47454a

length expanded size cdr WAVE problems fmt ratio filename
0:45.41 8034476 B --- -- ----- wav 1.0000 ph2017-12-29.mk22.sxr4.1644.s1t01.wav
5:08.45 54437084 B --- -- ----- wav 1.0000 ph2017-12-29.mk22.sxr4.1644.s1t02.wav
12:07.06 128256956 B --- -- ----- wav 1.0000 ph2017-12-29.mk22.sxr4.1644.s1t03.wav
7:02.23 74494940 B --- -- ----- wav 1.0000 ph2017-12-29.mk22.sxr4.1644.s1t04.wav
10:59.69 116409932 B --- -- ----- wav 1.0000 ph2017-12-29.mk22.sxr4.1644.s1t05.wav
6:57.61 73702316 B --- -- ----- wav 1.0000 ph2017-12-29.mk22.sxr4.1644.s1t06.wav
5:56.13 62829020 B --- -- ----- wav 1.0000 ph2017-12-29.mk22.sxr4.1644.s1t07.wav
8:37.58 91335260 B --- -- ----- wav 1.0000 ph2017-12-29.mk22.sxr4.1644.s1t08.wav
10:38.06 112557356 B --- -- ----- wav 1.0000 ph2017-12-29.mk22.sxr4.1644.s1t09.wav
13:08.16 139040876 B --- -- ----- wav 1.0000 ph2017-12-29.mk22.sxr4.1644.s1t10.wav
1:08.27 12058748 B --- -- ----- wav 1.0000 ph2017-12-29.mk22.sxr4.1644.s2t01.wav
10:34.10 111861164 B --- -- ----- wav 1.0000 ph2017-12-29.mk22.sxr4.1644.s2t02.wav
20:49.55 220453004 B --- -- ----- wav 1.0000 ph2017-12-29.mk22.sxr4.1644.s2t03.wav
10:38.72 112712588 B --- -- ----- wav 1.0000 ph2017-12-29.mk22.sxr4.1644.s2t04.wav
7:56.62 84112268 B --- -- ----- wav 1.0000 ph2017-12-29.mk22.sxr4.1644.s2t05.wav
7:30.73 79551740 B --- -- ----- wav 1.0000 ph2017-12-29.mk22.sxr4.1644.s2t06.wav
13:05.10 138497564 B --- -- ----- wav 1.0000 ph2017-12-29.mk22.sxr4.1644.s2t07.wav
3:17.30 34821404 B --- -- ----- wav 1.0000 ph2017-12-29.mk22.sxr4.1644.s2t08.wav
9:17.30 98325404 B --- -- ----- wav 1.0000 ph2017-12-29.mk22.sxr4.1644.s2t09.wav
165:40.32 1753492100 B 1.0000 (19 files)

Show Checksums
ffp
ph2017-12-29.mk22.sxr4.1644.s1t01.flac:86ca2467bf2eb4b323fa6f7c655492f5
ph2017-12-29.mk22.sxr4.1644.s1t02.flac:0e31cba6af0ebacce9e4b9c82703d78a
ph2017-12-29.mk22.sxr4.1644.s1t03.flac:f0eb9bd56bbd9226bcdef008fe4bcb2c
ph2017-12-29.mk22.sxr4.1644.s1t04.flac:86166a99180241dd2e7bc2748118a36c
ph2017-12-29.mk22.sxr4.1644.s1t05.flac:76c08517dbbdc842b48fa9217a85d9f9
ph2017-12-29.mk22.sxr4.1644.s1t06.flac:5a217a1ec1f2cbcd87ed06a7c36d2c12
ph2017-12-29.mk22.sxr4.1644.s1t07.flac:5917f9345fde1ee4fbbfec88de407318
ph2017-12-29.mk22.sxr4.1644.s1t08.flac:6e35a936c4ecdb99cdd0ca920623c9f6
ph2017-12-29.mk22.sxr4.1644.s1t09.flac:1f903e7a3e9a8ac648368ad5e7057e65
ph2017-12-29.mk22.sxr4.1644.s1t10.flac:b62611ea6b9926b50613055bd4f8417d
ph2017-12-29.mk22.sxr4.1644.s2t01.flac:8b559b61459d0ae53b8cd20bcaf42fb5
ph2017-12-29.mk22.sxr4.1644.s2t02.flac:746a0677ca3703602ea95ddf1e385295
ph2017-12-29.mk22.sxr4.1644.s2t03.flac:82e25cf4bc472a70e5f2f96a3494098b
ph2017-12-29.mk22.sxr4.1644.s2t04.flac:4b1e289bbc721541d31f03fe52f5be4f
ph2017-12-29.mk22.sxr4.1644.s2t05.flac:891ade0f5554cb67c38997dca92b397b
ph2017-12-29.mk22.sxr4.1644.s2t06.flac:a88ba27711cf2353d111066180010050
ph2017-12-29.mk22.sxr4.1644.s2t07.flac:58061466822983297065c02f0789b8fa
ph2017-12-29.mk22.sxr4.1644.s2t08.flac:d57a24a34a53f55a3dd98c02f118b24d
ph2017-12-29.mk22.sxr4.1644.s2t09.flac:ffab0ee7f4a32cff8fa550035c47454a

Comments
Add Comment
Other Sources (comments)
flac24 48 ... (0) flac16 44.1khz ... (0) flac16 44.1khz ... (0) flac24 48khz ... (0) flac24 96khz ... (0) flac24 48khz ... (0) flac24 96khz ... (0) flac24 96khz ... (0) flac24 96khz ... (0) flac16 44.1kHz... (0) flac24 96kHz Schoeps... (0) flac16 44.1khz DPA... (0) flac16 48kHz Source:... (0)
Date User Comment