Browse Collections Artists Sources   Search Dates

Add Show    List Management    Help


Phish 12/28/17
Madison Square Garden, New York, NY
Comments Add Comment    Source Collectors    Add to Collection    Add to Want List    History
Source # 140509 Other Sources
Entered by Matt Vernon
Checksums ffp
Disc Counts 0 / 0
Media Size
Date Circulated
Date Added
01/06/2018
01/06/2018
Source Summary flac16 44.1khz Location: OTS/ DFC (Section 2, Row 6, Seat 11). Source: Schoeps mk22 (60° @ 31cm)>nbob actives>Naiant PFAs>Sonosax SX-R4. Transfer: Sonosax SX-R4>USB-C>MacBook Pro>Pro Tools 12(normalizing)>Audacity(tracking, fades)>Sony Soundforge Convrt(resample(izotope,highest settings)/dither(mbit+/ultra, high dither)to 16 bit/44.1k)>XAct(FLAC 8,ffp,fix sbe,tagging). Recorded and Transferred by Andy Murray. 
Source Information - Download Text | Download Zip
Phish
Madison Square Garden
New York, NY
December 28, 2017

Location: OTS/ DFC (Section 2, Row 6, Seat 11)
Source: Schoeps mk22 (60° @ 31cm)>nbob actives>Naiant PFAs>Sonosax SX-R4
Transfer: Sonosax SX-R4>USB-C>MacBook Pro>Pro Tools 12(normalizing)>Audacity(tracking, fades)>Sony Soundforge Convrt(resample(izotope,highest settings)/dither(mbit+/ultra, high dither)to 16 bit/44.1k)>XAct(FLAC 8,ffp,fix sbe,tagging)

Recorded and Transferred by Andy Murray

Set I:
01 Intro
02 AC/DC Bag >
03 Wolfman's Brother
04 Roggae
05 Tube >
06 Bouncing Around The Room
07 Back On The Train
08 Your Pet Cat
09 Waking Up Dead >
10 Theme From The Bottom

Set II:
01 Intro
02 Wilson >
03 No Men In No Man's Land >
04 Twist >
05 Everything's Right >
06 Also Sprach Zarathustra >
07 Harry Hood
08 Encore Break
09 The Wedge
10 Slave To The Traffic Light

;flac fingerprints generated by xACT 2.43 on 2017-12-31 19:25:12 +0000

ph2017-12-28.mk22.sxr4.1644.s1t01.flac:3aff5e18518f564edbda836190756a91
ph2017-12-28.mk22.sxr4.1644.s1t02.flac:44f8730cc583a79fc99e8797e9b49998
ph2017-12-28.mk22.sxr4.1644.s1t03.flac:9ced5731b45b93a746ac8d536ad5a1c8
ph2017-12-28.mk22.sxr4.1644.s1t04.flac:5895cae83346b08d186d458ddeee717b
ph2017-12-28.mk22.sxr4.1644.s1t05.flac:b1939afeaf8b8231688e778c2ffca370
ph2017-12-28.mk22.sxr4.1644.s1t06.flac:0217e6818a32f7c08a835a2da7d08aca
ph2017-12-28.mk22.sxr4.1644.s1t07.flac:c1da5cccb8c227739f4d1f3702efb6b7
ph2017-12-28.mk22.sxr4.1644.s1t08.flac:575b3d818865264be6b40ec93be6a7a8
ph2017-12-28.mk22.sxr4.1644.s1t09.flac:f5d99080cdefed5576f4534d3f45c193
ph2017-12-28.mk22.sxr4.1644.s1t10.flac:86b4e1c202b64a62ba0d1ec29e5e32b2
ph2017-12-28.mk22.sxr4.1644.s2t01.flac:cf7977fddcb43769b854da17bf9ca52c
ph2017-12-28.mk22.sxr4.1644.s2t02.flac:3f4bf9cc34a32f78674aeae36d613722
ph2017-12-28.mk22.sxr4.1644.s2t03.flac:9ec48dd5cc3b72385ccdfe25d9ef636b
ph2017-12-28.mk22.sxr4.1644.s2t04.flac:9e7c035fa2e24b995c18e660b1d352fa
ph2017-12-28.mk22.sxr4.1644.s2t05.flac:d387542ce6a4c6dd62a0f5f80d866c71
ph2017-12-28.mk22.sxr4.1644.s2t06.flac:cb0e79a6b8e3dad9fc113f9ba57f5f98
ph2017-12-28.mk22.sxr4.1644.s2t07.flac:1988a53bbd7c824b5dd39daf97850ddf
ph2017-12-28.mk22.sxr4.1644.s2t08.flac:6a0bd7e816ecef630e88e2a24b8747f9
ph2017-12-28.mk22.sxr4.1644.s2t09.flac:5b43b203d0b4b7027185d03386fa446f
ph2017-12-28.mk22.sxr4.1644.s2t10.flac:0ed658b133e384f91467dc98e58f24e8

length expanded size cdr WAVE problems fmt ratio filename
1:16.39 13498172 B --- -- ----- wav 1.0000 ph2017-12-28.mk22.sxr4.1644.s1t01.wav
7:08.00 75499244 B --- -- ----- wav 1.0000 ph2017-12-28.mk22.sxr4.1644.s1t02.wav
13:10.11 139381916 B --- -- ----- wav 1.0000 ph2017-12-28.mk22.sxr4.1644.s1t03.wav
10:21.16 109582076 B --- -- ----- wav 1.0000 ph2017-12-28.mk22.sxr4.1644.s1t04.wav
8:06.07 85746908 B --- -- ----- wav 1.0000 ph2017-12-28.mk22.sxr4.1644.s1t05.wav
3:44.23 39567740 B --- -- ----- wav 1.0000 ph2017-12-28.mk22.sxr4.1644.s1t06.wav
10:11.60 107921564 B --- -- ----- wav 1.0000 ph2017-12-28.mk22.sxr4.1644.s1t07.wav
5:58.74 63325292 B --- -- ----- wav 1.0000 ph2017-12-28.mk22.sxr4.1644.s1t08.wav
6:31.36 69057116 B --- -- ----- wav 1.0000 ph2017-12-28.mk22.sxr4.1644.s1t09.wav
11:30.59 121854812 B --- -- ----- wav 1.0000 ph2017-12-28.mk22.sxr4.1644.s1t10.wav
0:46.25 8173244 B --- -- ----- wav 1.0000 ph2017-12-28.mk22.sxr4.1644.s2t01.wav
4:42.49 49860092 B --- -- ----- wav 1.0000 ph2017-12-28.mk22.sxr4.1644.s2t02.wav
24:06.20 255121484 B --- -- ----- wav 1.0000 ph2017-12-28.mk22.sxr4.1644.s2t03.wav
16:11.48 171397340 B --- -- ----- wav 1.0000 ph2017-12-28.mk22.sxr4.1644.s2t04.wav
11:29.40 121633724 B --- -- ----- wav 1.0000 ph2017-12-28.mk22.sxr4.1644.s2t05.wav
8:29.12 89815868 B --- -- ----- wav 1.0000 ph2017-12-28.mk22.sxr4.1644.s2t06.wav
13:20.44 141223532 B --- -- ----- wav 1.0000 ph2017-12-28.mk22.sxr4.1644.s2t07.wav
4:11.08 44295260 B --- -- ----- wav 1.0000 ph2017-12-28.mk22.sxr4.1644.s2t08.wav
7:23.36 78229916 B --- -- ----- wav 1.0000 ph2017-12-28.mk22.sxr4.1644.s2t09.wav
11:29.19 121584332 B --- -- ----- wav 1.0000 ph2017-12-28.mk22.sxr4.1644.s2t10.wav
180:09.26 1906769632 B 1.0000 (20 files)
Show Checksums
ffp
ph2017-12-28.mk22.sxr4.1644.s1t01.flac:3aff5e18518f564edbda836190756a91
ph2017-12-28.mk22.sxr4.1644.s1t02.flac:44f8730cc583a79fc99e8797e9b49998
ph2017-12-28.mk22.sxr4.1644.s1t03.flac:9ced5731b45b93a746ac8d536ad5a1c8
ph2017-12-28.mk22.sxr4.1644.s1t04.flac:5895cae83346b08d186d458ddeee717b
ph2017-12-28.mk22.sxr4.1644.s1t05.flac:b1939afeaf8b8231688e778c2ffca370
ph2017-12-28.mk22.sxr4.1644.s1t06.flac:0217e6818a32f7c08a835a2da7d08aca
ph2017-12-28.mk22.sxr4.1644.s1t07.flac:c1da5cccb8c227739f4d1f3702efb6b7
ph2017-12-28.mk22.sxr4.1644.s1t08.flac:575b3d818865264be6b40ec93be6a7a8
ph2017-12-28.mk22.sxr4.1644.s1t09.flac:f5d99080cdefed5576f4534d3f45c193
ph2017-12-28.mk22.sxr4.1644.s1t10.flac:86b4e1c202b64a62ba0d1ec29e5e32b2
ph2017-12-28.mk22.sxr4.1644.s2t01.flac:cf7977fddcb43769b854da17bf9ca52c
ph2017-12-28.mk22.sxr4.1644.s2t02.flac:3f4bf9cc34a32f78674aeae36d613722
ph2017-12-28.mk22.sxr4.1644.s2t03.flac:9ec48dd5cc3b72385ccdfe25d9ef636b
ph2017-12-28.mk22.sxr4.1644.s2t04.flac:9e7c035fa2e24b995c18e660b1d352fa
ph2017-12-28.mk22.sxr4.1644.s2t05.flac:d387542ce6a4c6dd62a0f5f80d866c71
ph2017-12-28.mk22.sxr4.1644.s2t06.flac:cb0e79a6b8e3dad9fc113f9ba57f5f98
ph2017-12-28.mk22.sxr4.1644.s2t07.flac:1988a53bbd7c824b5dd39daf97850ddf
ph2017-12-28.mk22.sxr4.1644.s2t08.flac:6a0bd7e816ecef630e88e2a24b8747f9
ph2017-12-28.mk22.sxr4.1644.s2t09.flac:5b43b203d0b4b7027185d03386fa446f
ph2017-12-28.mk22.sxr4.1644.s2t10.flac:0ed658b133e384f91467dc98e58f24e8

Comments
Add Comment
Other Sources (comments)
flac16 44.1khz ... (0) flac24 48khz ... (0) flac16 44.1khz ... (0) flac24 48khz ... (0) flac16 44.1khz... (0) flac24 48khz ... (0) flac16 44.1khz ... (0) flac24 48khz ... (0) flac16 44.1khz... (0) flac24 48khz ... (0) flac16 44.1khz ... (0) flac24 48khz ... (0) flac16 44.1khz ... (0) flac24 96khz ... (0) flac24 48khz ... (0) flac24 96khz ... (0) flac24 96khz ... (0) flac24 96khz ... (0) flac16 44.1khz ... (0) flac16 44.1khz... (0) flac16 44.1kHz... (0) flac24 96kHz Schoeps... (0) flac16 48kHz Neumann... (0)
Date User Comment