Browse Collections Artists Sources   Search Dates

Add Show    List Management    Help


Phish 12/28/17
Madison Square Garden, New York, NY
Comments Add Comment    Source Collectors    Add to Collection    Add to Want List    History
Source # 140517 Other Sources
Entered by Matt Vernon
Checksums ffp , flac-md5
Disc Counts 0 / 0
Media Size
Date Circulated
Date Added
01/07/2018
01/08/2018
Source Summary flac24 96khz Recording Info: AKG C460b/CK8 > Sound Devices 744T (24bit/96k) > Samplitude Pro X3 Suite > FLAC/24. Section 2 Row 1 Seat 20 with the mic stand 9 feet high. Recorded and Mastered By Charlie Miller. 
Source Information - Download Text | Download Zip
Phish - December 28, 2017
Madison Square Garden - New York, NY

Recording Info:
AKG C460b/CK8 > Sound Devices 744T (24bit/96k) > Samplitude Pro X3 Suite > FLAC/24
(1 DVD FLAC)

Recorded and Mastered By Charlie Miller
[email protected]
January 7, 2018

Notes:
-- Section 2 Row 1 Seat 20 with the mic stand 9 feet high
-- Chris Kuroda allowed me to set up next to him in the lighting booth

Set 1:
01 - Tuning
02 - AC/DC Bag
03 - Wolfman's Brother
04 - Roggae
05 - Tube
06 - Bouncing Around The Room
07 - Back On The Train
08 - Your Pet Cat
09 - Waking Up Dead
10 - Theme From The Bottom

Set 2:
11 - Tuning
12 - Wilson
13 - No Men In No Man's Land
14 - Twist
15 - Everything's Right
16 - Also Sprach Zarathustra
17 - Harry Hood

Encore:
18 - Encore Break
19 - The Wedge
20 - Slave To The Traffic Light


SHNTOOL OUTPUT:
length expanded size cdr WAVE problems fmt ratio filename
0:49.362 28432322 B cxx -- ---xx flac 0.4871 01 Tuning.flac
7:01.986 243063980 B cxx -- ---xx flac 0.5384 02 AC_DC Bag.flac
13:18.183 459753614 B cxx -- ---xx flac 0.5288 03 Wolfman's Brother.flac
10:14.260 353813972 B cxx -- ---xx flac 0.5260 04 Roggae.flac
8:05.253 279505496 B cxx -- ---xx flac 0.5438 05 Tube.flac
3:44.533 129331310 B cxx -- ---xx flac 0.5447 06 Bouncing Around The Room.flac
10:12.703 352916864 B cxx -- ---xx flac 0.5340 07 Back On The Train.flac
5:57.856 206125340 B cxx -- ---xx flac 0.5457 08 Your Pet Cat.flac
6:31.312 225395906 B cxx -- ---xx flac 0.5449 09 Waking Up Dead.flac
11:20.145 391763312 B cxx -- ---xx flac 0.5444 10 Theme From The Bottom.flac
0:39.025 22478324 B cxx -- ---xx flac 0.4589 11 Tuning.flac
4:42.155 162521306 B cxx -- ---xx flac 0.5428 12 Wilson.flac
24:09.011 834630296 B cxx -- ---xx flac 0.5440 13 No Men In No Man's Land.flac
16:07.652 557367308 B cxx -- ---xx flac 0.5399 14 Twist.flac
11:25.520 394859672 B cxx -- ---xx flac 0.5431 15 Everything's Right.flac
8:33.399 295718102 B cxx -- ---xx flac 0.5431 16 Also Sprach Zarathustra.flac
13:20.671 461186330 B cxx -- ---xx flac 0.5306 17 Harry Hood.flac
4:12.320 145336298 B cxx -- ---xx flac 0.4838 18 Encore Break.flac
7:23.485 255447626 B cxx -- ---xx flac 0.5447 19 The Wedge.flac
11:30.227 397570994 B cxx -- ---xx flac 0.5223 20 Slave To The Traffic Light.flac
179:19.058 6197218372 B 0.5363 (20 files)
Show Checksums
ffp
01 Tuning.flac:6ad4ec924d5f07c05fe36985f4b65d67
02 AC_DC Bag.flac:ca4b94a7afbe3eace82e4917db821e77
03 Wolfman's Brother.flac:68c07bef5804afcae380160a4e417815
04 Roggae.flac:a675d8c62438a0240d4ac49c911d14df
05 Tube.flac:b33c498940bb626dc6ade4c2d81ad4c3
06 Bouncing Around The Room.flac:1447c64381d96465f38d322644568d56
07 Back On The Train.flac:d7f907bcbcb3af05a38c531bf2fbc1c3
08 Your Pet Cat.flac:d10108458b929fc2bf024f242b91923b
09 Waking Up Dead.flac:2b6afb83a2975f6be141b6913cf975ee
10 Theme From The Bottom.flac:fcd82ddcecfe07bd8bbd042c4c1e63fd
11 Tuning.flac:d2b6171cfaf0c4893851bf67de2e1226
12 Wilson.flac:49515237dafcfe0c698ce04bf3675bcb
13 No Men In No Man's Land.flac:b9015d45c9eb6843cb87b36adb938f99
14 Twist.flac:af35f8a2affb72915c6e6eb1c09f05b5
15 Everything's Right.flac:e55b78b3a462a3c2354ce90b339e8861
16 Also Sprach Zarathustra.flac:627629d1950885d4f338332506f55d1d
17 Harry Hood.flac:3a137afc673bac86128f54b8e89f6ac2
18 Encore Break.flac:bc02e96a952e23c2f12c3fb48763065c
19 The Wedge.flac:5dee9acd5da073bbef13057842dd2e06
20 Slave To The Traffic Light.flac:e224a2336b93c527504a87f5779bc829
flac-md5

d980d17e59ffdea6f500fe5fe6208887 *01 Tuning.flac
cf6b0e2ad6583792e41d4abd0cfaca37 *02 AC_DC Bag.flac
cdf48c527d28ad6feae662d1634b8022 *03 Wolfman's Brother.flac
a1155d6b06006cc536a262c8725c6ef6 *04 Roggae.flac
2935ca32c00deb6c2cc5e57487c32fbe *05 Tube.flac
4ec2ae428335dac88a79ada401125190 *06 Bouncing Around The Room.flac
a75156c59b1df41690c0e6e7340f20db *07 Back On The Train.flac
acdac3383450404d397ba3a1ecc37e27 *08 Your Pet Cat.flac
fc21b8ed569df5adc1b8b66ee6974241 *09 Waking Up Dead.flac
d8ee3914c785a60703b6f81438c61fdf *10 Theme From The Bottom.flac
fd2d5f4eb5d418f8020af09dc9476225 *11 Tuning.flac
818e575213229dcedbe77021c19e77a6 *12 Wilson.flac
5f7b82bdb70a0f0ca2d87cab02234c05 *13 No Men In No Man's Land.flac
92d75d2412eb250e10008d864048cb2a *14 Twist.flac
e5110cc1f79e67446f04da10cefa03d9 *15 Everything's Right.flac
e7e24ed0039b52ca6de7184bf17c89c9 *16 Also Sprach Zarathustra.flac
44446b27f38906769302816ced5aca12 *17 Harry Hood.flac
38c51c980bf8edc189a2a5866efa0450 *18 Encore Break.flac
2a93fb6dcbffa7188e31413a58dde2fc *19 The Wedge.flac
15789ee2ce4f7ec0da9ed7d58c1681fb *20 Slave To The Traffic Light.flac

Comments
Add Comment
Other Sources (comments)
flac16 44.1khz ... (0) flac24 48khz ... (0) flac16 44.1khz ... (0) flac24 48khz ... (0) flac16 44.1khz... (0) flac24 48khz ... (0) flac16 44.1khz ... (0) flac24 48khz ... (0) flac16 44.1khz... (0) flac24 48khz ... (0) flac16 44.1khz ... (0) flac24 48khz ... (0) flac16 44.1khz ... (0) flac24 96khz ... (0) flac24 48khz ... (0) flac16 44.1khz ... (0) flac24 96khz ... (0) flac24 96khz ... (0) flac16 44.1khz ... (0) flac16 44.1khz... (0) flac16 44.1kHz... (0) flac24 96kHz Schoeps... (0) flac16 48kHz Neumann... (0)
Date User Comment