Browse Collections Artists Sources   Search Dates

Add Show    List Management    Help


Phish 12/28/17
Madison Square Garden, New York, NY
Comments Add Comment    Source Collectors    Add to Collection    Add to Want List    History
Source # 140518 Other Sources
Entered by Matt Vernon
Checksums ffp , flac-md5
Disc Counts 0 / 0
Media Size
Date Circulated
Date Added
01/07/2018
01/08/2018
Source Summary flac24 96khz Recording Info: Schoeps CMC6/MK4 > Lunatec V2 > Sound Devices 744T (24bit/96k) > Samplitude Pro X3 Suite > FLAC/24. Section 2 Row 1 Seat 20 with the mic stand 9 feet high. Recorded and Mastered By Charlie Miller. 
Source Information - Download Text | Download Zip
Phish - December 28, 2017
Madison Square Garden - New York, NY

Recording Info:
Schoeps CMC6/MK4 > Lunatec V2 > Sound Devices 744T (24bit/96k) >
Samplitude Pro X3 Suite > FLAC/24
(1 DVD FLAC)

Recorded and Mastered By Charlie Miller
[email protected]
January 7, 2018

Notes:
-- Section 2 Row 1 Seat 20 with the mic stand 9 feet high
-- Chris Kuroda allowed me to set up next to him in the lighting booth

Set 1:
01 - Tuning
02 - AC/DC Bag
03 - Wolfman's Brother
04 - Roggae
05 - Tube
06 - Bouncing Around The Room
07 - Back On The Train
08 - Your Pet Cat
09 - Waking Up Dead
10 - Theme From The Bottom

Set 2:
11 - Tuning
12 - Wilson
13 - No Men In No Man's Land
14 - Twist
15 - Everything's Right
16 - Also Sprach Zarathustra
17 - Harry Hood

Encore:
18 - Encore Break
19 - The Wedge
20 - Slave To The Traffic Light


SHNTOOL OUTPUT:
length expanded size cdr WAVE problems fmt ratio filename
0:49.362 28432322 B cxx -- ---xx flac 0.5136 01 Tuning.flac
7:01.986 243063980 B cxx -- ---xx flac 0.5513 02 AC_DC Bag.flac
13:18.183 459753614 B cxx -- ---xx flac 0.5401 03 Wolfman's Brother.flac
10:14.260 353813972 B cxx -- ---xx flac 0.5367 04 Roggae.flac
8:05.253 279505496 B cxx -- ---xx flac 0.5533 05 Tube.flac
3:44.533 129331310 B cxx -- ---xx flac 0.5568 06 Bouncing Around The Room.flac
10:12.703 352916864 B cxx -- ---xx flac 0.5512 07 Back On The Train.flac
5:57.856 206125340 B cxx -- ---xx flac 0.5551 08 Your Pet Cat.flac
6:31.312 225395906 B cxx -- ---xx flac 0.5542 09 Waking Up Dead.flac
11:20.145 391763312 B cxx -- ---xx flac 0.5537 10 Theme From The Bottom.flac
0:39.025 22478324 B cxx -- ---xx flac 0.4890 11 Tuning.flac
4:42.155 162521306 B cxx -- ---xx flac 0.5561 12 Wilson.flac
24:09.011 834630296 B cxx -- ---xx flac 0.5508 13 No Men In No Man's Land.flac
16:07.652 557367308 B cxx -- ---xx flac 0.5493 14 Twist.flac
11:25.520 394859672 B cxx -- ---xx flac 0.5532 15 Everything's Right.flac
8:33.399 295718102 B cxx -- ---xx flac 0.5510 16 Also Sprach Zarathustra.flac
13:20.671 461186330 B cxx -- ---xx flac 0.5434 17 Harry Hood.flac
4:12.320 145336298 B cxx -- ---xx flac 0.5117 18 Encore Break.flac
7:23.485 255447626 B cxx -- ---xx flac 0.5549 19 The Wedge.flac
11:30.005 397442768 B cxx -- ---xx flac 0.5332 20 Slave To The Traffic Light.flac
179:18.836 6197090146 B 0.5473 (20 files)
Show Checksums
ffp
01 Tuning.flac:43acfb5cdc0eaa052e32255a49c14a78
02 AC_DC Bag.flac:259cd27a27efe001eca3ca9b2c4818c3
03 Wolfman's Brother.flac:c48278d555b984e132288e7051675cef
04 Roggae.flac:dd40f64270b2d1d092c96dbcaa5f3171
05 Tube.flac:b248e7d3a992f3fb4a45ca9a1f1c9186
06 Bouncing Around The Room.flac:e85ba6aefe3e0590caf2a66451bc923c
07 Back On The Train.flac:f43ee16c65085e11c9a009f4063a3420
08 Your Pet Cat.flac:75b33f8b68e07cc53720fa98372d1839
09 Waking Up Dead.flac:5332a1b1e7b9f047858fb4a8fc35c3e1
10 Theme From The Bottom.flac:1b877dc1a58f2d59d4cbf8da5763a52b
11 Tuning.flac:4970cb4a36e3bbab1463f231dcd8a55b
12 Wilson.flac:9933f3dfbea7f127ff25de7e77d2d26b
13 No Men In No Man's Land.flac:13ec338bbeafefb701ca21adbc47e2e3
14 Twist.flac:a7f67f4f966c9826185b736c488a7e81
15 Everything's Right.flac:ea5a9bd843a0db9073983135fd241514
16 Also Sprach Zarathustra.flac:2d5ce29df4c057b26051b1892281dc2f
17 Harry Hood.flac:c01138d03b836403828078b1f4c69d57
18 Encore Break.flac:5490ec0dde12859b4c0ef8d7cf5ec172
19 The Wedge.flac:7b71034d2f4687120d741f347601b384
20 Slave To The Traffic Light.flac:7c1f066c1ccd8e2574c05198ec25f90b
flac-md5


ff9e723c4a4b2851c9db2f62acfc9e3a *01 Tuning.flac
bd4f2a0821aeee112b639803345b1d90 *02 AC_DC Bag.flac
22ff6e9a7ea4c794d73ebff7f3d4d9fb *03 Wolfman's Brother.flac
a28d7fd90e9ec886bd3902a5ceae5bbd *04 Roggae.flac
fe4590509cfb20ca931b91d99b073d27 *05 Tube.flac
ea68be2d1626770277497e5227f0aafd *06 Bouncing Around The Room.flac
863b414b2e3d065b1d4e158d40e37d09 *07 Back On The Train.flac
1afeb8fde12d9826d8425c7f5aa19335 *08 Your Pet Cat.flac
6c71fb68c59afc11a677ae58672ef96c *09 Waking Up Dead.flac
fe8485abd453fadfd6c751bcdb034f3c *10 Theme From The Bottom.flac
c042be2591c2df75267716132494c779 *11 Tuning.flac
51fa3ddf4242eaf4422e120e908125f0 *12 Wilson.flac
c03b56840e31da6d30c48751ab56e0f5 *13 No Men In No Man's Land.flac
763364997520c6eb94356da77b98e7b4 *14 Twist.flac
607a0de86feb86a138224602875896dd *15 Everything's Right.flac
bad434d83132624d0b7a1590a8454bdc *16 Also Sprach Zarathustra.flac
a94f8fec7323457a88ad65870d2004c6 *17 Harry Hood.flac
0838980c206120a4e3160e1f23e03531 *18 Encore Break.flac
f5a36d66017841d1da2c4a051409201d *19 The Wedge.flac
d81560ea0f60b47b9f0e94ede6ab07b2 *20 Slave To The Traffic Light.flac

Comments
Add Comment
Other Sources (comments)
flac16 44.1khz ... (0) flac24 48khz ... (0) flac16 44.1khz ... (0) flac24 48khz ... (0) flac16 44.1khz... (0) flac24 48khz ... (0) flac16 44.1khz ... (0) flac24 48khz ... (0) flac16 44.1khz... (0) flac24 48khz ... (0) flac16 44.1khz ... (0) flac24 48khz ... (0) flac16 44.1khz ... (0) flac24 96khz ... (0) flac24 48khz ... (0) flac16 44.1khz ... (0) flac24 96khz ... (0) flac24 96khz ... (0) flac16 44.1khz ... (0) flac16 44.1khz... (0) flac16 44.1kHz... (0) flac24 96kHz Schoeps... (0) flac16 48kHz Neumann... (0)
Date User Comment