Browse Collections Artists Sources   Search Dates

Add Show    List Management    Help


Phish 12/28/17
Madison Square Garden, New York, NY
Comments Add Comment    Source Collectors    Add to Collection    Add to Want List    History
Source # 140519 Other Sources
Entered by Matt Vernon
Checksums ffp , flac-md5
Disc Counts 0 / 0
Media Size
Date Circulated
Date Added
01/07/2018
01/08/2018
Source Summary flac16 44.1khz Recording Info: Schoeps CMC6/MK4 > Lunatec V2 > Sound Devices 744T (24bit/96k) > Samplitude Pro X3 Suite > FLAC/16. Section 2 Row 1 Seat 20 with the mic stand 9 feet high. Recorded and Mastered By Charlie Miller. 
Source Information - Download Text | Download Zip
Phish - December 28, 2017
Madison Square Garden - New York, NY

Recording Info:
Schoeps CMC6/MK4 > Lunatec V2 > Sound Devices 744T (24bit/96k) >
Samplitude Pro X3 Suite > FLAC/16
(3 Discs Audio / 1 DVD FLAC)

Recorded and Mastered By Charlie Miller
[email protected]
January 7, 2018

Notes:
-- Section 2 Row 1 Seat 20 with the mic stand 9 feet high
-- Chris Kuroda allowed me to set up next to him in the lighting booth

Set 1:
01 - Tuning
02 - AC/DC Bag
03 - Wolfman's Brother
04 - Roggae
05 - Tube
06 - Bouncing Around The Room
07 - Back On The Train
08 - Your Pet Cat
09 - Waking Up Dead
10 - Theme From The Bottom

Set 2:
11 - Tuning
12 - Wilson
13 - No Men In No Man's Land
14 - Twist
15 - Everything's Right
16 - Also Sprach Zarathustra
17 - Harry Hood

Encore:
18 - Encore Break
19 - The Wedge
20 - Slave To The Traffic Light


SHNTOOL OUTPUT:
length expanded size cdr WAVE problems fmt ratio filename
0:49.27 8707148 B --- -- ---xx flac 0.4593 01 Tuning.flac
7:01.74 74438492 B --- -- ---xx flac 0.5381 02 AC_DC Bag.flac
13:18.13 140797820 B --- -- ---xx flac 0.5254 03 Wolfman's Brother.flac
10:14.20 108356684 B --- -- ---xx flac 0.5163 04 Roggae.flac
8:05.19 85598732 B --- -- ---xx flac 0.5474 05 Tube.flac
3:44.40 39607724 B --- -- ---xx flac 0.5445 06 Bouncing Around The Room.flac
10:12.52 108079148 B --- -- ---xx flac 0.5397 07 Back On The Train.flac
5:57.65 63127724 B --- -- ---xx flac 0.5480 08 Your Pet Cat.flac
6:31.23 69026540 B --- -- ---xx flac 0.5500 09 Waking Up Dead.flac
11:20.11 119977916 B --- -- ---xx flac 0.5457 10 Theme From The Bottom.flac
0:39.02 6884348 B --- -- ---xx flac 0.4264 11 Tuning.flac
4:42.11 49770716 B --- -- ---xx flac 0.5472 12 Wilson.flac
24:09.01 255605996 B --- -- ---xx flac 0.5419 13 No Men In No Man's Land.flac
16:07.49 170694092 B --- -- ---xx flac 0.5395 14 Twist.flac
11:25.39 120925772 B --- -- ---xx flac 0.5487 15 Everything's Right.flac
8:33.30 90563804 B --- -- ---xx flac 0.5428 16 Also Sprach Zarathustra.flac
13:20.50 141237644 B --- -- ---xx flac 0.5285 17 Harry Hood.flac
4:12.24 44509292 B --- -- ---xx flac 0.4581 18 Encore Break.flac
7:23.37 78232268 B --- -- ---xx flac 0.5508 19 The Wedge.flac
11:30.01 121718396 B --- -- ---xx flac 0.5072 20 Slave To The Traffic Light.flac
179:18.63 1897860256 B 0.5348 (20 files)
Show Checksums
ffp
01 Tuning.flac:b470721600b34176277810d00fe0f5c3
02 AC_DC Bag.flac:d2d9d775b42c3a5af6fc84124753f0a1
03 Wolfman's Brother.flac:276ba5cdbe3721229e7b22eb45a0b0ba
04 Roggae.flac:1f92741502a91a1c0a8383626638be09
05 Tube.flac:e44a47bec1105a7de5f1604374156862
06 Bouncing Around The Room.flac:0368db397b61467553bbc981f108aca7
07 Back On The Train.flac:70300bbf9c53b7b4f653e579b7098ba4
08 Your Pet Cat.flac:379076b263ac8421470dfaeb4876f795
09 Waking Up Dead.flac:4c56b4774921015ba027a86cca6fa615
10 Theme From The Bottom.flac:b0e67fa1873a43d64d5109c9304fa271
11 Tuning.flac:f7156e716d74245e062847b2be15b993
12 Wilson.flac:b2a73396373de17a2a7755b8fc52bc23
13 No Men In No Man's Land.flac:4e61d0e883ac03113c0f8523aa7718cc
14 Twist.flac:6b5009732434da9ae42552cdaa2840ad
15 Everything's Right.flac:8ba000cf1bd732ddfb6db4086c93b559
16 Also Sprach Zarathustra.flac:fba8f8762bad3ea05914b14f7b1229c8
17 Harry Hood.flac:950e2eccd913751bbc4d84ea528e350b
18 Encore Break.flac:42c9fac8492c07004ac9fe62cffd301f
19 The Wedge.flac:5655f8b695766518337bf7abf58a681d
20 Slave To The Traffic Light.flac:dd7bf1a9aec550362c0d51469bbcda91
flac-md5
066751a6dad4a004f00eee7500fcb95d *01 Tuning.flac
27b92f263914091ddca0abde7d8eb9af *02 AC_DC Bag.flac
1211d06a53f70e7f06b298411aea52ac *03 Wolfman's Brother.flac
1f11c16d4977f50980f73e34f13abdb2 *04 Roggae.flac
57ac6a249ac99207d9e1c221bea03bba *05 Tube.flac
3af5e34d244c3d859a82a02bfcf400e2 *06 Bouncing Around The Room.flac
8a961abf8b8fdfc01695c39148250509 *07 Back On The Train.flac
54138c579f9a96b0e12e4d6780ba4403 *08 Your Pet Cat.flac
f094d543adabc85437522be4a8289b44 *09 Waking Up Dead.flac
dfd3a0003b1a9c6d91c60ccfa8879fbd *10 Theme From The Bottom.flac
23c0727e68dde97a9b76c15edff3c2db *11 Tuning.flac
866a825c78d5a895345caef1a42bd9c2 *12 Wilson.flac
86ecafe3c3a6dee532a11d86f3108807 *13 No Men In No Man's Land.flac
919d0adc9cf5a3ebd87b7d2cb7e58db2 *14 Twist.flac
2ee800ce149e12d02bcc73513846b353 *15 Everything's Right.flac
9eb5e716c6a75f0fd722ae79a102bf5a *16 Also Sprach Zarathustra.flac
fcbd446aad30538cfbd140d659fcb483 *17 Harry Hood.flac
43549128ab10f260456bf16eb6f0ef68 *18 Encore Break.flac
8c748d824fcdc9a2e327014736807604 *19 The Wedge.flac
7252c1ed6880286ea1a77f7669979f2b *20 Slave To The Traffic Light.flac

Comments
Add Comment
Other Sources (comments)
flac16 44.1khz ... (0) flac24 48khz ... (0) flac16 44.1khz ... (0) flac24 48khz ... (0) flac16 44.1khz... (0) flac24 48khz ... (0) flac16 44.1khz ... (0) flac24 48khz ... (0) flac16 44.1khz... (0) flac24 48khz ... (0) flac16 44.1khz ... (0) flac24 48khz ... (0) flac16 44.1khz ... (0) flac24 96khz ... (0) flac24 48khz ... (0) flac16 44.1khz ... (0) flac24 96khz ... (0) flac24 96khz ... (0) flac24 96khz ... (0) flac16 44.1khz... (0) flac16 44.1kHz... (0) flac24 96kHz Schoeps... (0) flac16 48kHz Neumann... (0)
Date User Comment