Browse Collections Artists Sources   Search Dates

Add Show    List Management    Help


Phish 12/29/17
Madison Square Garden, New York, NY
Comments Add Comment    Source Collectors    Add to Collection    Add to Want List    History
Source # 140550 Other Sources
Entered by Matt Vernon
Checksums ffp , flac-md5
Disc Counts 0 / 0
Media Size
Date Circulated
Date Added
01/09/2018
01/09/2018
Source Summary flac24 96khz Recording Info: Schoeps CMC6/MK4 > Lunatec V2 > Sound Devices 744T (24bit/96k) > Samplitude Pro X3 Suite > FLAC/24. Section 2 Row 1 Seat 20 with the mic stand 9 feet high. Recorded and Mastered By Charlie Miller. 
Source Information - Download Text | Download Zip
Phish - December 28, 2017
Madison Square Garden - New York, NY

Recording Info:
Schoeps CMC6/MK4 > Lunatec V2 > Sound Devices 744T (24bit/96k) >
Samplitude Pro X3 Suite > FLAC/24
(1 DVD FLAC)

Recorded and Mastered By Charlie Miller
[email protected]
January 9, 2018

Notes:
-- Section 2 Row 1 Seat 20 with the mic stand 9 feet high
-- Chris Kuroda allowed me to set up next to him in the lighting booth

Set 1:
01 - Tuning
02 - Cavern
03 - Blaze On
04 - 555
05 - I Always Wanted It This Way
06 - Martian Monster
07 - Heavy Things
08 - Destiny Unbound
09 - Ocelot
10 - Walls Of The Cave

Set 2:
11 - Tuning
12 - Sand
13 - Chalk Dust Torture
14 - Ghost
15 - Backwards Down The Number Line
16 - Simple
17 - Split Open And Melt

Encore:
18 - Encore Break
19 - Julius


SHNTOOL OUTPUT:
length expanded size cdr WAVE problems fmt ratio filename
0:58.698 33809810 B cxx -- ---xx flac 0.5004 01 Tuning.flac
4:49.612 166816568 B cxx -- ---xx flac 0.5559 02 Cavern.flac
12:14.384 423005234 B cxx -- ---xx flac 0.5475 03 Blaze On.flac
6:54.070 238504478 B cxx -- ---xx flac 0.5417 04 555.flac
10:59.847 380071964 B cxx -- ---xx flac 0.5463 05 I Always Wanted It This Way.flac
6:59.468 241613540 B cxx -- ---xx flac 0.5417 06 Martian Monster.flac
5:55.573 204810272 B cxx -- ---xx flac 0.5417 07 Heavy Things.flac
8:37.023 297805202 B cxx -- ---xx flac 0.5555 08 Destiny Unbound.flac
10:37.583 367248086 B cxx -- ---xx flac 0.5421 09 Ocelot.flac
13:08.725 454305476 B cxx -- ---xx flac 0.5506 10 Walls Of The Cave.flac
1:17.571 44680772 B cxx -- ---xx flac 0.4770 11 Tuning.flac
10:02.341 346948724 B cxx -- ---xx flac 0.5524 12 Sand.flac
21:00.695 726160592 B cxx -- ---xx flac 0.5489 13 Chalk Dust Torture.flac
10:28.146 361812122 B cxx -- ---xx flac 0.5466 14 Ghost.flac
7:56.622 274534034 B cxx -- ---xx flac 0.5571 15 Backwards Down The Number Line.flac
7:31.061 259811450 B cxx -- ---xx flac 0.5478 16 Simple.flac
13:08.238 454025078 B cxx -- ---xx flac 0.5440 17 Split Open And Melt.flac
3:42.051 127901540 B cxx -- ---xx flac 0.5056 18 Encore Break.flac
8:35.064 296677052 B cxx -- ---xx flac 0.5597 19 Julius.flac
164:56.773 5700541994 B 0.5468 (19 files)

Show Checksums
ffp
01 Tuning.flac:e503b35d3d7e12a0203c19fe851fd901
02 Cavern.flac:7a92efa793bd8a137ddd1a5bec599bee
03 Blaze On.flac:a268c88ed2466aeeacb0c0f60dcce1fb
04 555.flac:ab92bd0bc91d7af9c812b9bef58b5587
05 I Always Wanted It This Way.flac:211f825c36447df7a8b3f997e4bb7b9f
06 Martian Monster.flac:a545453f440790aadd42443574c0ce4a
07 Heavy Things.flac:cbeb7fde38ea0043a776d8bdbd58f1cb
08 Destiny Unbound.flac:9ab9cd5bf7af959b2bb5face9ffa7f94
09 Ocelot.flac:58997c88995b30fca0d9ac23aa53c552
10 Walls Of The Cave.flac:d9a96df3aa6063363944b169f753ada5
11 Tuning.flac:e4c0e2f3793c8d72e6e818f91e094058
12 Sand.flac:656d586b08a29cb9113d4569be332526
13 Chalk Dust Torture.flac:437065cae7368afb462665e25e605dfc
14 Ghost.flac:ce1945335e78838e64a0b701addaa9bd
15 Backwards Down The Number Line.flac:9b98c21a10ecae441080386c53625267
16 Simple.flac:ca5ef36fd1f849b93df9cd67b1a12417
17 Split Open And Melt.flac:d21c5d8ed6069abf5876ddb617b5e738
18 Encore Break.flac:37537668ba5a21cae4a8b32d990fcccf
19 Julius.flac:9f941bfde2fc00506a97cf4ec1c05185
flac-md5
844b2f6e0ee30bbfc08b7007d2374b1e *01 Tuning.flac
16946c0e2d3e296c6c58ea1cec9a8ba8 *02 Cavern.flac
f33908d6204ff2a5424580cd354d9d06 *03 Blaze On.flac
58c7322f007990d7d6cae6815823bf7b *04 555.flac
39da0add58491c68c2e2e4ff3f66fb1f *05 I Always Wanted It This Way.flac
017d5bb76ede6fd98ae2cb9c43af12ce *06 Martian Monster.flac
70646f97272f56354b6d2f69df2a5c91 *07 Heavy Things.flac
79ad8a33d632deb6cc9fa80126486b2b *08 Destiny Unbound.flac
c1645090d9017a10f013b0c1ea412d6a *09 Ocelot.flac
c6a1a5ad9a252b763b073acbf8e1272b *10 Walls Of The Cave.flac
9c60d30a3c27fc4a47459bd22a840c41 *11 Tuning.flac
4ce563e30cfe67d2a879770855842b1a *12 Sand.flac
2cb9625a6fce34ad17adf43860284d85 *13 Chalk Dust Torture.flac
72d9750fb1d566f088b571e8916fcef1 *14 Ghost.flac
96ac49182c0a593e7e81f4a82bf6f9b3 *15 Backwards Down The Number Line.flac
864191c79928e4254dd6a8331d4c3b9a *16 Simple.flac
846ffafa0230da80eb7b2c0ba49cc405 *17 Split Open And Melt.flac
0618ef5843e05b733c6cfe902eb5dd26 *18 Encore Break.flac
c9f17e360a656bda032ca534aff2363e *19 Julius.flac

Comments
Add Comment
Other Sources (comments)
flac24 48 ... (0) flac16 44.1khz ... (0) flac16 44.1khz ... (0) flac24 48khz ... (0) flac24 96khz ... (0) flac24 48khz ... (0) flac16 44.1khz ... (0) flac24 96khz ... (0) flac24 96khz ... (0) flac16 44.1kHz... (0) flac24 96kHz Schoeps... (0) flac16 44.1khz DPA... (0) flac16 48kHz Source:... (0)
Date User Comment