Browse Collections Artists Sources   Search Dates

Add Show    List Management    Help


Phish 12/29/17
Madison Square Garden, New York, NY
Comments Add Comment    Source Collectors    Add to Collection    Add to Want List    History
Source # 140551 Other Sources
Entered by Matt Vernon
Checksums ffp , flac-md5
Disc Counts 0 / 0
Media Size
Date Circulated
Date Added
01/09/2018
01/09/2018
Source Summary flac24 96khz Recording Info: AKG C460b/CK8 > Sound Devices 744T (24bit/96k) > Samplitude Pro X3 Suite > FLAC/24. Section 2 Row 1 Seat 20 with the mic stand 9 feet high. Recorded and Mastered By Charlie Miller. 
Source Information - Download Text | Download Zip
Phish - December 29, 2017
Madison Square Garden - New York, NY

Recording Info:
AKG C460b/CK8 > Sound Devices 744T (24bit/96k) > Samplitude Pro X3 Suite > FLAC/24
(1 DVD FLAC)

Recorded and Mastered By Charlie Miller
[email protected]
January 9, 2018

Notes:
-- Section 2 Row 1 Seat 20 with the mic stand 9 feet high
-- Chris Kuroda allowed me to set up next to him in the lighting booth

Set 1:
01 - Tuning
02 - Cavern
03 - Blaze On
04 - 555
05 - I Always Wanted It This Way
06 - Martian Monster
07 - Heavy Things
08 - Destiny Unbound
09 - Ocelot
10 - Walls Of The Cave

Set 2:
11 - Tuning
12 - Sand
13 - Chalk Dust Torture
14 - Ghost
15 - Backwards Down The Number Line
16 - Simple
17 - Split Open And Melt

Encore:
18 - Encore Break
19 - Julius


SHNTOOL OUTPUT:
length expanded size cdr WAVE problems fmt ratio filename
0:58.698 33809810 B cxx -- ---xx flac 0.4753 01 Tuning.flac
4:49.612 166816568 B cxx -- ---xx flac 0.5447 02 Cavern.flac
12:14.384 423005234 B cxx -- ---xx flac 0.5356 03 Blaze On.flac
6:54.070 238504478 B cxx -- ---xx flac 0.5370 04 555.flac
10:59.847 380071964 B cxx -- ---xx flac 0.5449 05 I Always Wanted It This Way.flac
6:59.468 241613540 B cxx -- ---xx flac 0.5347 06 Martian Monster.flac
5:55.573 204810272 B cxx -- ---xx flac 0.5360 07 Heavy Things.flac
8:37.023 297805202 B cxx -- ---xx flac 0.5466 08 Destiny Unbound.flac
10:37.583 367248086 B cxx -- ---xx flac 0.5481 09 Ocelot.flac
13:08.725 454305476 B cxx -- ---xx flac 0.5465 10 Walls Of The Cave.flac
1:17.571 44680772 B cxx -- ---xx flac 0.4619 11 Tuning.flac
10:02.341 346948724 B cxx -- ---xx flac 0.5470 12 Sand.flac
21:00.695 726160592 B cxx -- ---xx flac 0.5471 13 Chalk Dust Torture.flac
10:28.146 361812122 B cxx -- ---xx flac 0.5403 14 Ghost.flac
7:56.622 274534034 B cxx -- ---xx flac 0.5579 15 Backwards Down The Number Line.flac
7:31.061 259811450 B cxx -- ---xx flac 0.5458 16 Simple.flac
13:08.238 454025078 B cxx -- ---xx flac 0.5458 17 Split Open And Melt.flac
3:42.051 127901540 B cxx -- ---xx flac 0.4834 18 Encore Break.flac
8:33.899 296005958 B cxx -- ---xx flac 0.5552 19 Julius.flac
164:55.608 5699870900 B 0.5425 (19 files)

Show Checksums
ffp
01 Tuning.flac:2ed1e1ebe5e7322ddf100e14f797212f
02 Cavern.flac:2e026d646fb7c6da63f2c70788b40cc7
03 Blaze On.flac:af1785dd6172e8b377e6545a585122a9
04 555.flac:0a6e7aabf2e119127c8449d3692c5f94
05 I Always Wanted It This Way.flac:4c4032c72304900971fbf8bc17a5e2e8
06 Martian Monster.flac:70f49b2b50aa98847c22075408a5be7a
07 Heavy Things.flac:d94b5faefa99cadf0e12830e2d8334f3
08 Destiny Unbound.flac:3e31f47423d93de4b04339889a286667
09 Ocelot.flac:487b9d721e2fa1227403ded0cea15eeb
10 Walls Of The Cave.flac:a4cd3e8f2fc00055d6f712d36003c51c
11 Tuning.flac:f6983dcc77eb5d2312cc21567d8e5333
12 Sand.flac:d507d874795da86e6fec58652de497cf
13 Chalk Dust Torture.flac:ecdf5217a02dd55675417694a42eff6e
14 Ghost.flac:b9c6f7acd1e7a6566e37de93b00fa444
15 Backwards Down The Number Line.flac:fd6207e22d63f60b8ec786a1908b7567
16 Simple.flac:a615cc73e79799c0b2105b3ae802fc16
17 Split Open And Melt.flac:48aac87f01f6975a496b7d5dcce087e8
18 Encore Break.flac:dfa2170ef72676350d7a1bdf2f3b9208
19 Julius.flac:16a37a5f5df1a81197325aa99481436b
flac-md5
5b794b8dcb82cc5b115eef4c13ed833f *01 Tuning.flac
f2644583d85c779582cc7fd0f13f6b74 *02 Cavern.flac
42146ad91248b26550f994fd87456136 *03 Blaze On.flac
83a34c3878ba010e7d91afe4f4dc99cd *04 555.flac
7f62f4cfa1d9fed04c315e7c1d076fbf *05 I Always Wanted It This Way.flac
534640c6066adfe32ec7b2087f7e0477 *06 Martian Monster.flac
b5efca3f9a7b30e8781d919b31edc705 *07 Heavy Things.flac
f3438bc3b31b09fdd31dfa9355afcb78 *08 Destiny Unbound.flac
0bacba3b539aceb2a08e61d3f69aee7f *09 Ocelot.flac
953420004e5e434230279ef5448636ce *10 Walls Of The Cave.flac
3f5e1f0801b7c486894485d6b37c59ea *11 Tuning.flac
2212b38eb4145d90a93667c107d8fa9e *12 Sand.flac
5aae4db2dc3abad8a4afa612f7a64dfe *13 Chalk Dust Torture.flac
15c52d95288be2b8ca0fb52e2e0742dc *14 Ghost.flac
949bdfbe82928fa58e443c6ef9e6e3d5 *15 Backwards Down The Number Line.flac
e9d2e1b57c5999a97bd85047908f8e25 *16 Simple.flac
e513ac89d33f608e7bf808c52f3db009 *17 Split Open And Melt.flac
b82d8e3c0923cdbcf2b30452f7c51353 *18 Encore Break.flac
806d2caaeb90f3cab87ebea0c482d010 *19 Julius.flac

Comments
Add Comment
Other Sources (comments)
flac24 48 ... (0) flac16 44.1khz ... (0) flac16 44.1khz ... (0) flac24 48khz ... (0) flac24 96khz ... (0) flac24 48khz ... (0) flac16 44.1khz ... (0) flac24 96khz ... (0) flac24 96khz ... (0) flac16 44.1kHz... (0) flac24 96kHz Schoeps... (0) flac16 44.1khz DPA... (0) flac16 48kHz Source:... (0)
Date User Comment