Browse Collections Artists Sources   Search Dates

Add Show    List Management    Help


Phish 12/30/17
Madison Square Garden, New York, NY
Comments Add Comment    Source Collectors    Add to Collection    Add to Want List    History
Source # 140662 Other Sources
Entered by Matt Vernon
Checksums ffp , flac-md5
Disc Counts 0 / 0
Media Size
Date Circulated
Date Added
01/11/2018
01/11/2018
Source Summary flac24 96khz Recording Info: Schoeps CMC6/MK4 > Lunatec V2 > Sound Devices 744T (24bit/96k) > Samplitude Pro X3 Suite > FLAC/24. Recorded and Mastered By Charlie Miller. Section 2 Row 1 Seat 20 with the mic stand 9 feet high. 
Source Information - Download Text | Download Zip
Phish - December 30, 2017
Madison Square Garden - New York, NY

Recording Info:
Schoeps CMC6/MK4 > Lunatec V2 > Sound Devices 744T (24bit/96k) >
Samplitude Pro X3 Suite > FLAC/24
(1 DVD FLAC)

Recorded and Mastered By Charlie Miller
[email protected]
January 11, 2018

Notes:
-- Section 2 Row 1 Seat 20 with the mic stand 9 feet high
-- Chris Kuroda allowed me to set up next to him in the lighting booth

Set 1:
01 - Tuning
02 - Mike's Song
03 - I Am Hydrogen
04 - Weekapaug Groove
05 - Tweezer
06 - Ass Handed
07 - Kill Devil Falls
08 - Bathtub Gin
09 - Brother
10 - More

Set 2:
11 - Tuning
12 - Down With Disease
13 - Steam
14 - Light
15 - Farmhouse
16 - Run Like An Antelope

Encore:
17 - Encore Break
18 - Sleeping Monkey
19 - Tweezer Reprise


SHNTOOL OUTPUT:
length expanded size cdr WAVE problems fmt ratio filename
0:56.044 32281322 B cxx -- ---xx flac 0.5085 01 Tuning.flac
8:00.082 276527540 B cxx -- ---xx flac 0.5510 02 Mike's Song.flac
3:22.470 116622518 B cxx -- ---xx flac 0.5165 03 I Am Hydrogen.flac
8:16.103 285755504 B cxx -- ---xx flac 0.5656 04 Weekapaug Groove.flac
19:30.763 674359568 B cxx -- ---xx flac 0.5498 05 Tweezer.flac
1:33.757 54004346 B cxx -- ---xx flac 0.5466 06 Ass Handed.flac
7:47.665 269374886 B cxx -- ---xx flac 0.5623 07 Kill Devil Falls.flac
14:44.728 509603636 B cxx -- ---xx flac 0.5458 08 Bathtub Gin.flac
7:44.638 267631790 B cxx -- ---xx flac 0.5516 09 Brother.flac
6:52.618 237667868 B cxx -- ---xx flac 0.5573 10 More.flac
0:55.032 31698290 B cxx -- ---xx flac 0.4739 11 Tuning.flac
28:10.074 973482704 B cxx -- ---xx flac 0.5554 12 Down With Disease.flac
14:13.358 491533988 B cxx -- ---xx flac 0.5232 13 Steam.flac
10:54.602 377050880 B cxx -- ---xx flac 0.5430 14 Light.flac
6:53.852 238378550 B cxx -- ---xx flac 0.5364 15 Farmhouse.flac
10:16.223 354944642 B cxx -- ---xx flac 0.5468 16 Run Like An Antelope.flac
3:39.319 126327800 B cxx -- ---xx flac 0.5048 17 Encore Break.flac
5:00.223 172928510 B cxx -- ---xx flac 0.5151 18 Sleeping Monkey.flac
3:35.528 124144052 B cxx -- ---xx flac 0.5681 19 Tweezer Reprise.flac
162:27.079 5614318394 B 0.5457 (19 files)
Show Checksums
ffp
01 Tuning.flac:585aa2f6b8891aca46ff46a631db9ee8
02 Mike's Song.flac:a3992d87d81b1d45bc5a145c74b33035
03 I Am Hydrogen.flac:aedb03a4c93679dbe84d765895f39b9f
04 Weekapaug Groove.flac:ede63beee288307dc018dc17fbcf0e12
05 Tweezer.flac:39e6ac5c1fa9a6ca422c01d4ddbb3844
06 Ass Handed.flac:88e08644820e995616ab29cb2529af96
07 Kill Devil Falls.flac:f83c61453aea6b2ad03c20f9dd1ccfff
08 Bathtub Gin.flac:96bec7917cae32f8217bdd63ffff92d2
09 Brother.flac:53294083087d4f5f822a52db64f3bf81
10 More.flac:65a7081616d5478dfb5d5e044678d9ec
11 Tuning.flac:7744a0a1972cca353c96f71e33f8998e
12 Down With Disease.flac:21976659d2d5159495c4f6836eeaf424
13 Steam.flac:ea82eae6d1e3ae66f541e9bb7d01df11
14 Light.flac:f0d758e1003158875b91fe1c0efceab1
15 Farmhouse.flac:b19d27aaa08f0cf231ac13bf405ebaa8
16 Run Like An Antelope.flac:af1681567c2ffc1fa1a15751839cd087
17 Encore Break.flac:df02f7944cef2d8140cef62d1df71e46
18 Sleeping Monkey.flac:b400dfd03e6a6b3ff90c632c851250d6
19 Tweezer Reprise.flac:600a119386be75d5d163b024c57a6454
flac-md5
2625cfb40ac91f94bc2941ecce6c6194 *01 Tuning.flac
165cdfa9f2875702ebc002a058d3a4fe *02 Mike's Song.flac
44b9fb3d307e937aee958a59a666f31e *03 I Am Hydrogen.flac
05dbe9726f576c0ff8671bf6d05043e8 *04 Weekapaug Groove.flac
9ccc1798c4a34073655d8125f829d3c0 *05 Tweezer.flac
e6c48ab3701e5500b2569eef0e7a1cde *06 Ass Handed.flac
f1b3d010f9faa1522e6bb6665b9a1201 *07 Kill Devil Falls.flac
b525731c1c4f1a416a08fc8754bba09d *08 Bathtub Gin.flac
539964e499ac59ffd1ac0e31b3d03a84 *09 Brother.flac
3bee9c513aedc3e644ed37a6f7a39c55 *10 More.flac
e0b825b4e910bfb4135ae84880a287e8 *11 Tuning.flac
4a9ac112d1f6181ef2ce0fd11190e787 *12 Down With Disease.flac
29d396926b953a09ae0898abdcb5a0ae *13 Steam.flac
36eb539d7711d2cc5b043ff8930a574d *14 Light.flac
bc3c4000cb6b9b57cd0b5323f14ed904 *15 Farmhouse.flac
a16cfad4d65ea71973cc566dce6896cd *16 Run Like An Antelope.flac
b3d6114936f920e8cb8681f505b7c383 *17 Encore Break.flac
096335406c9c891fc46f29a677195e10 *18 Sleeping Monkey.flac
c0c8aa160517fa6ed8fe66f242691e1f *19 Tweezer Reprise.flac

Comments
Add Comment
Other Sources (comments)
flac16 44.1khz... (0) flac24 48khz ... (0) flac16 44.1khz ... (0) flac24 48khz ... (0) flac16 44.1khz ... (0) flac24 48khz... (0) flac16 44.1khz ... (0) flac24 96khz ... (0) flac16 44.1khz ... (0) flac24 48khz ... (0) flac16 48khz... (0) flac24 96khz ... (0) flac16 44.1khz ... (0) flac16 44.1khz ... (0) flac24 96khz ... (0) flac24 48khz ... (0) flac24 96khz ... (0) flac24 48khz ... (0) flac16 44.1khz ... (0) flac16 44.1kHz... (0) flac24 96kHz Schoeps... (0) flac16 44.1khz DPA... (0) flac16 48kHz Neumann... (0)
Date User Comment