Browse Collections Artists Sources   Search Dates

Add Show    List Management    Help


Phish 12/30/17
Madison Square Garden, New York, NY
Comments Add Comment    Source Collectors    Add to Collection    Add to Want List    History
Source # 140663 Other Sources
Entered by Matt Vernon
Checksums ffp , flac-md5
Disc Counts 0 / 0
Media Size
Date Circulated
Date Added
01/11/2018
01/11/2018
Source Summary flac24 96khz Recording Info: AKG C460b/CK8 > Sound Devices 744T (24bit/96k) > Samplitude Pro X3 Suite > FLAC/24. Section 2 Row 1 Seat 20 with the mic stand 9 feet high. Recorded and Mastered By Charlie Miller. 
Source Information - Download Text | Download Zip
Phish - December 30, 2017
Madison Square Garden - New York, NY

Recording Info:
AKG C460b/CK8 > Sound Devices 744T (24bit/96k) > Samplitude Pro X3 Suite > FLAC/24
(1 DVD FLAC)

Recorded and Mastered By Charlie Miller
[email protected]
January 11, 2018

Notes:
-- Section 2 Row 1 Seat 20 with the mic stand 9 feet high
-- Chris Kuroda allowed me to set up next to him in the lighting booth

Set 1:
01 - Tuning
02 - Mike's Song
03 - I Am Hydrogen
04 - Weekapaug Groove
05 - Tweezer
06 - Ass Handed
07 - Kill Devil Falls
08 - Bathtub Gin
09 - Brother
10 - More

Set 2:
11 - Tuning
12 - Down With Disease
13 - Steam
14 - Light
15 - Farmhouse
16 - Run Like An Antelope

Encore:
17 - Encore Break
18 - Sleeping Monkey
19 - Tweezer Reprise


SHNTOOL OUTPUT:
length expanded size cdr WAVE problems fmt ratio filename
0:56.044 32281322 B cxx -- ---xx flac 0.4766 01 Tuning.flac
8:00.082 276527540 B cxx -- ---xx flac 0.5479 02 Mike's Song.flac
3:22.470 116622518 B cxx -- ---xx flac 0.5257 03 I Am Hydrogen.flac
8:16.103 285755504 B cxx -- ---xx flac 0.5665 04 Weekapaug Groove.flac
19:30.763 674359568 B cxx -- ---xx flac 0.5553 05 Tweezer.flac
1:33.757 54004346 B cxx -- ---xx flac 0.5392 06 Ass Handed.flac
7:47.665 269374886 B cxx -- ---xx flac 0.5627 07 Kill Devil Falls.flac
14:44.728 509603636 B cxx -- ---xx flac 0.5401 08 Bathtub Gin.flac
7:44.638 267631790 B cxx -- ---xx flac 0.5466 09 Brother.flac
6:52.618 237667868 B cxx -- ---xx flac 0.5574 10 More.flac
0:55.032 31698290 B cxx -- ---xx flac 0.4552 11 Tuning.flac
28:10.074 973482704 B cxx -- ---xx flac 0.5577 12 Down With Disease.flac
14:13.358 491533988 B cxx -- ---xx flac 0.5207 13 Steam.flac
10:54.602 377050880 B cxx -- ---xx flac 0.5430 14 Light.flac
6:53.852 238378550 B cxx -- ---xx flac 0.5330 15 Farmhouse.flac
10:16.223 354944642 B cxx -- ---xx flac 0.5463 16 Run Like An Antelope.flac
3:39.319 126327800 B cxx -- ---xx flac 0.4853 17 Encore Break.flac
5:00.223 172928510 B cxx -- ---xx flac 0.5073 18 Sleeping Monkey.flac
3:34.782 123714302 B cxx -- ---xx flac 0.5584 19 Tweezer Reprise.flac
162:26.333 5613888644 B 0.5444 (19 files)
Show Checksums
ffp
01 Tuning.flac:29f44776410cba2a6cfcb557b50ab0e3
02 Mike's Song.flac:aa8b302ddb17419b9a0e312af9f03b52
03 I Am Hydrogen.flac:34800a34cb79d1642c2a3e2701167549
04 Weekapaug Groove.flac:86b6b5cf5ac68234c558ceac00731bbd
05 Tweezer.flac:2944eabc40be81ca79115ef43845bee4
06 Ass Handed.flac:231c3750de5314f48bc5db94ba44cab8
07 Kill Devil Falls.flac:a704d59be846cc20318743380c74e1d5
08 Bathtub Gin.flac:1891fed62b041a83c59325c9619b0b29
09 Brother.flac:3c326f67886c2021e21c93a7490f1d74
10 More.flac:c4aa3a77b5e6f99abd665d06a892363f
11 Tuning.flac:6dab9626b1350cb536e47b58d7f83207
12 Down With Disease.flac:f2b0d09d788d7d2adba89a172b50e536
13 Steam.flac:c08809b1a9de7f26322cec73a2ed6591
14 Light.flac:01510fd1e34e11795e9527b1302a8296
15 Farmhouse.flac:beffc0545ba7983460c52040ff848d0a
16 Run Like An Antelope.flac:cb22101c5ce2431aa24abdf57c581a24
17 Encore Break.flac:4031b372313f7951eada1631d7657d51
18 Sleeping Monkey.flac:cedd55bc9141431bc8689ede863661d4
19 Tweezer Reprise.flac:8fb10f6272b22564e3a74e0aa001f5f1
flac-md5
1dabc2a237d7d672d8d4c29cd8aa246e *01 Tuning.flac
34320ebd31e5e6a404afd50a9118e1d5 *02 Mike's Song.flac
46d123af8f07d16f8a99473ba1e9b377 *03 I Am Hydrogen.flac
5e8b494f638606eb77a64d1e329b2037 *04 Weekapaug Groove.flac
fe06af3fcc7e0f9dcb7e42a8ad95973f *05 Tweezer.flac
ce1e2d61548b30f88f4b250a3d17cd31 *06 Ass Handed.flac
62c9635feabda496e26387f0b12f534b *07 Kill Devil Falls.flac
3f9b762f179f8a6d3077d743dcda4785 *08 Bathtub Gin.flac
449c1a26dad23820de70da0ff9d0100d *09 Brother.flac
f178ed2663daf052b814f1434a75825f *10 More.flac
75c15e6486758fc39fa1eaa702e089a4 *11 Tuning.flac
eb76c6f4b8d0ced34451a42a9da49c37 *12 Down With Disease.flac
62f7136ebfe8bd6de2038426311afa06 *13 Steam.flac
4c97029d149485a42addfe5cfcc49c9b *14 Light.flac
137905cb3da673cccbb3fccd1079d301 *15 Farmhouse.flac
5c878c4e2aff3c11db10f4284ec9f885 *16 Run Like An Antelope.flac
d7d629eb4c5b6e9f52ef0e117f1debf4 *17 Encore Break.flac
25a21781c21431fa139aba4cf66451c4 *18 Sleeping Monkey.flac
2aedfc8890796b37bde7d57511721a61 *19 Tweezer Reprise.flac

Comments
Add Comment
Other Sources (comments)
flac16 44.1khz... (0) flac24 48khz ... (0) flac16 44.1khz ... (0) flac24 48khz ... (0) flac16 44.1khz ... (0) flac24 48khz... (0) flac16 44.1khz ... (0) flac24 96khz ... (0) flac16 44.1khz ... (0) flac24 48khz ... (0) flac16 48khz... (0) flac24 96khz ... (0) flac16 44.1khz ... (0) flac16 44.1khz ... (0) flac24 96khz ... (0) flac24 48khz ... (0) flac24 96khz ... (0) flac24 48khz ... (0) flac16 44.1khz ... (0) flac16 44.1kHz... (0) flac24 96kHz Schoeps... (0) flac16 44.1khz DPA... (0) flac16 48kHz Neumann... (0)
Date User Comment