Browse Collections Artists Sources   Search Dates

Add Show    List Management    Help


Grateful Dead 04/02/87
The Centrum, Worcester, MA
Comments Add Comment    Source Collectors    Add to Collection    Add to Want List    History
Source # 140668 Other Sources
Entered by Gary Field
Checksums ffp , flac-md5
Disc Counts 0 / 0
Media Size Compressed: 908.41 MB (952537088 bytes)
Date Circulated
Date Added
01/11/2018
01/11/2018
Source Summary flac16; source: nak 300 (12' ots) > tcd5m (mx90s +dolby) > master > tascam 122mkii > apogee rosetta 200 (24/96) > audacity (normalize, fades, tracks) >flac2496 > xact (tags, md5, ffp); recorded: david lane + david barfield; transferred / seeded: barfield 
  Archive
Source Information - Download Text | Download Zip
grateful dead
the centrum
worcester, ma
4-2-1987

source: nak 300 (12' ots) > tcd5m (mx90s +dolby) > master > tascam 122mkii > apogee rosetta 200 (24/96) > audacity (normalize, fades, tracks) >flac2496 > xact (tags, md5, ffp)

recorded: david lane + david barfield
transferred / seeded: barfield

Notes:
-- This file set is 16 bit

Cold Rain and Snow >
New Minglewood Blues
Dupree's Diamond Blues
Far From Me
Me and My Uncle
Mexicali Blues
When Push Comes to Shove
Beat it on Down the Line
Bird Song > (flip)
Music Never Stopped

Scarlet Begonias >
Fire on the Mountain
Looks Like Rain
Eyes of the World >
drums >
space >
Gimme Some Lovin' >
The Wheel >
Black Peter >
Around and Around
Good Lovin'
e:
Black Muddy River

    length     expanded size    cdr  WAVE problems  fmt   ratio  filename
     6:39.56       70515356 B   ---   --   ---xx   flac  0.5884  gd1987-04-02s1t-01.flac
     7:33.19       79953932 B   ---   --   ---xx   flac  0.5927  gd1987-04-02s1t-02.flac
     6:32.24       69205292 B   ---   --   ---xx   flac  0.6204  gd1987-04-02s1t-03.flac
     5:03.12       53477468 B   ---   --   ---xx   flac  0.6210  gd1987-04-02s1t-04.flac
     3:04.21       32507036 B   ---   --   ---xx   flac  0.6217  gd1987-04-02s1t-05.flac
     5:20.74       56622092 B   ---   --   ---xx   flac  0.6166  gd1987-04-02s1t-06.flac
     5:44.58       60818060 B   ---   --   ---xx   flac  0.6097  gd1987-04-02s1t-07.flac
     3:07.19       33031532 B   ---   --   ---xx   flac  0.6317  gd1987-04-02s1t-08.flac
     9:51.34      104332412 B   ---   --   ---xx   flac  0.6054  gd1987-04-02s1t-09.flac
     6:38.65       70360124 B   ---   --   ---xx   flac  0.6298  gd1987-04-02s1t-10.flac
     9:03.68       95945180 B   ---   --   ---xx   flac  0.6248  gd1987-04-02s2t-01.flac
     9:24.53       99614300 B   ---   --   ---xx   flac  0.6335  gd1987-04-02s2t-02.flac
     7:54.57       83747708 B   ---   --   ---xx   flac  0.6233  gd1987-04-02s2t-03.flac
     6:59.51       74031596 B   ---   --   ---xx   flac  0.6436  gd1987-04-02s2t-04.flac
    10:16.12      108690668 B   ---   --   ---xx   flac  0.5897  gd1987-04-02s2t-05.flac
     5:21.55       56753804 B   ---   --   ---xx   flac  0.5370  gd1987-04-02s2t-06.flac
     4:34.42       48432428 B   ---   --   ---xx   flac  0.6463  gd1987-04-02s2t-07.flac
     4:08.13       43777820 B   ---   --   ---xx   flac  0.6358  gd1987-04-02s2t-08.flac
     9:30.20      100595084 B   ---   --   ---xx   flac  0.6121  gd1987-04-02s2t-09.flac
     3:37.32       38354108 B   ---   --   ---xx   flac  0.6523  gd1987-04-02s2t-10.flac
     8:15.33       87395660 B   ---   --   ---xx   flac  0.6501  gd1987-04-02s2t-11.flac
     6:55.02       73210748 B   ---   --   ---xx   flac  0.6406  gd1987-04-02s2t-12.flac
   145:37.70     1541372408 B                            0.6180  (22 files)




Show Checksums
ffp
gd1987-04-02s1t-01.flac:76a4a4baaf13462d74e13e4c30eddabf
gd1987-04-02s1t-02.flac:393e95d1dec0b37c32c893e71eb6ec1b
gd1987-04-02s1t-03.flac:fd097a06a80ee411986f848b94c37213
gd1987-04-02s1t-04.flac:e517b5d7649b5e8545174e45b7c8f034
gd1987-04-02s1t-05.flac:b83c60f67c9eb9760b9ca72c9c55ea01
gd1987-04-02s1t-06.flac:e1ea893c3bfe5ee83160f17e7a28d2ea
gd1987-04-02s1t-07.flac:645bce164209f5487555ebc5cd909038
gd1987-04-02s1t-08.flac:fc74225a3ddf2466280d27483d9f3a79
gd1987-04-02s1t-09.flac:55a5d0c5d14c5e78060890c9596faf85
gd1987-04-02s1t-10.flac:435c171a218e8e56f7974a82188d4333
gd1987-04-02s2t-01.flac:67706c14e1eb63a3c32f205bc9563fff
gd1987-04-02s2t-02.flac:adac1e22f32a567fc59afb061fbbd3e5
gd1987-04-02s2t-03.flac:71285294422cdd7d869096b928d1943c
gd1987-04-02s2t-04.flac:e828971dc1290ff35fc9199effffd576
gd1987-04-02s2t-05.flac:aa044ab84b973d37a368af20241c867a
gd1987-04-02s2t-06.flac:b4eeee9a6a24c59dccfc09637b6f6269
gd1987-04-02s2t-07.flac:0b7a9eb7397aed742d4226a61bd27bac
gd1987-04-02s2t-08.flac:c73342ee05403689b065dba3b7250248
gd1987-04-02s2t-09.flac:1bdd1c515c58faa744cf2a7f35dd57bf
gd1987-04-02s2t-10.flac:aeb0432f182a61aa3b4a9f543087a746
gd1987-04-02s2t-11.flac:a2e08ca72a7290f1c51428ec89481b32
gd1987-04-02s2t-12.flac:8564d2467602d37b184f82047a833874
flac-md5
baeaa51541dc87d582826d6727534fd4 *gd1987-04-02s1t-01.flac
3e82bc5ec97aea6c07198635f9654a43 *gd1987-04-02s1t-02.flac
23291477021905fba1386e61975e462b *gd1987-04-02s1t-03.flac
f56ac742460c9ceca839424522c171b7 *gd1987-04-02s1t-04.flac
47724332ec6f284681b65810cdf867ec *gd1987-04-02s1t-05.flac
2309d809ed932f627009bdaac6a5c2a5 *gd1987-04-02s1t-06.flac
0759d77b7c7e37df4072cb44d24a68f7 *gd1987-04-02s1t-07.flac
21e1680eae00845853a1485fa9b777d5 *gd1987-04-02s1t-08.flac
c1c6ec348f19e236bd3d6444ddf00c20 *gd1987-04-02s1t-09.flac
22ba2f5c6f79e042c4a08671d74ce8b3 *gd1987-04-02s1t-10.flac
c7c9cca25f6f3b9d64423bf6073f13a0 *gd1987-04-02s2t-01.flac
7c5541e8cb996b641dfac7be055fbec6 *gd1987-04-02s2t-02.flac
92e9365bcd8f94b9fb091877afcb4720 *gd1987-04-02s2t-03.flac
dec251aba06b3a879c32866406748f30 *gd1987-04-02s2t-04.flac
03f4acb3df20685d41d9a4e97bcae8da *gd1987-04-02s2t-05.flac
786583f6b24957acd3b50cbf01868f3a *gd1987-04-02s2t-06.flac
2cdb759d4574f2e6330ab091b6997eed *gd1987-04-02s2t-07.flac
cf40663ff09cbc5c038e6fe51cc37a6b *gd1987-04-02s2t-08.flac
1b98f9c6eca4b93c65e043be31d6ad71 *gd1987-04-02s2t-09.flac
65ffa59013d09a58edcf4448f394df45 *gd1987-04-02s2t-10.flac
0fd7cdd99fc36260d5c3514fbb07d36f *gd1987-04-02s2t-11.flac
89a9c1b0a3172b430fb09835f73fb398 *gd1987-04-02s2t-12.flac

Comments
Add Comment
Other Sources (comments)
AUD>PCM>DAT>CDR; via... (0) flac16; Recording... (0) flac16; nak 300 mics... (0) flac16; Recording... (0) flac16; Nakamichi... (0) flac24; Master... (0) flac16; Master... (0) flac24; Recording... (0) flac16; Recording... (0) flac24; source: nak... (1) flac16; Recording... (0) flac24; Recording... (0) flac16; Set 2 Source... (0)
Date User Comment
01/12/2018 norm the md5 uploaded is wrong, this is it

baeaa51541dc87d582826d6727534fd4 *gd1987-04-02s1t-01.flac
3e82bc5ec97aea6c07198635f9654a43 *gd1987-04-02s1t-02.flac
23291477021905fba1386e61975e462b *gd1987-04-02s1t-03.flac
f56ac742460c9ceca839424522c171b7 *gd1987-04-02s1t-04.flac
47724332ec6f284681b65810cdf867ec *gd1987-04-02s1t-05.flac
2309d809ed932f627009bdaac6a5c2a5 *gd1987-04-02s1t-06.flac
0759d77b7c7e37df4072cb44d24a68f7 *gd1987-04-02s1t-07.flac
21e1680eae00845853a1485fa9b777d5 *gd1987-04-02s1t-08.flac
c1c6ec348f19e236bd3d6444ddf00c20 *gd1987-04-02s1t-09.flac
22ba2f5c6f79e042c4a08671d74ce8b3 *gd1987-04-02s1t-10.flac
c7c9cca25f6f3b9d64423bf6073f13a0 *gd1987-04-02s2t-01.flac
7c5541e8cb996b641dfac7be055fbec6 *gd1987-04-02s2t-02.flac
92e9365bcd8f94b9fb091877afcb4720 *gd1987-04-02s2t-03.flac
dec251aba06b3a879c32866406748f30 *gd1987-04-02s2t-04.flac
03f4acb3df20685d41d9a4e97bcae8da *gd1987-04-02s2t-05.flac
786583f6b24957acd3b50cbf01868f3a *gd1987-04-02s2t-06.flac
2cdb759d4574f2e6330ab091b6997eed *gd1987-04-02s2t-07.flac
cf40663ff09cbc5c038e6fe51cc37a6b *gd1987-04-02s2t-08.flac
1b98f9c6eca4b93c65e043be31d6ad71 *gd1987-04-02s2t-09.flac
65ffa59013d09a58edcf4448f394df45 *gd1987-04-02s2t-10.flac
0fd7cdd99fc36260d5c3514fbb07d36f *gd1987-04-02s2t-11.flac
89a9c1b0a3172b430fb09835f73fb398 *gd1987-04-02s2t-12.flac
01/13/2018 Wharfrat73 Updated .md5.