Browse Collections Artists Sources   Search Dates

Add Show    List Management    Help


Phish 12/31/17
Madison Square Garden, New York, NY
Comments Add Comment    Source Collectors    Add to Collection    Add to Want List    History
Source # 140677 Other Sources
Entered by Matt Vernon
Checksums ffp , flac-md5
Disc Counts 0 / 0
Media Size
Date Circulated
Date Added
01/13/2018
01/13/2018
Source Summary flac24 96khz Recording Info: Schoeps CMC6/MK4 > Lunatec V2 > Sound Devices 744T (24bit/96k) > Samplitude Pro X3 Suite > FLAC/24. Section 2 Row 1 Seat 20 with the mic stand 9 feet high. Recorded and Mastered By Charlie Miller 
Source Information - Download Text | Download Zip
Phish - December 31, 2017
Madison Square Garden - New York, NY

Recording Info:
Schoeps CMC6/MK4 > Lunatec V2 > Sound Devices 744T (24bit/96k) >
Samplitude Pro X3 Suite > FLAC/24
(1 DVD FLAC)

Recorded and Mastered By Charlie Miller
[email protected]
January 13, 2018

Notes:
-- Numerous balloon pops mainly in Set 3
-- Section 2 Row 1 Seat 20 with the mic stand 9 feet high
-- Chris Kuroda allowed me to set up next to him in the lighting booth

Set 1:
01 - Tuning
02 - Carini
03 - Suzy Greenburg
04 - My Friend, My Friend
05 - Fluffhead
06 - Reba
07 - Poor Heart
08 - 46 Days
09 - Maze
10 - Character Zero

Set 2:
11 - Tuning
12 - Possum
13 - Fuego
14 - Gotta Jibboo
15 - Golgi Apparatus
16 - What's The Use?
17 - You Enjoy Myself

Set 3:
18 - Tuning
19 - Soul Planet
20 - Auld Lang Syne
21 - Free
22 - A Song I Heard The Ocean Sing
23 - Moma Dance
24 - Prince Caspian
25 - Wading In The Velvet Sea
26 - First Tube

Encore:
27 - Encore Break
28 - Loving Cup


SHNTOOL OUTPUT:
length expanded size cdr WAVE problems fmt ratio filename
0:44.731 25765064 B cxx -- ---xx flac 0.5117 01 Tuning.flac
10:45.208 371639744 B cxx -- ---xx flac 0.5496 02 Carini.flac
6:20.812 219347552 B cxx -- ---xx flac 0.5552 03 Suzy Greenberg.flac
6:09.523 212845088 B cxx -- ---xx flac 0.5445 04 My Friend, My Friend.flac
16:56.941 585758054 B cxx -- ---xx flac 0.5382 05 Fluffhead.flac
14:20.355 495564524 B cxx -- ---xx flac 0.5377 06 Reba.flac
2:36.940 90397574 B cxx -- ---xx flac 0.5597 07 Poor Heart.flac
8:08.939 281628806 B cxx -- ---xx flac 0.5547 08 46 Days.flac
10:16.242 354955214 B cxx -- ---xx flac 0.5620 09 Maze.flac
6:33.152 226455884 B cxx -- ---xx flac 0.5635 10 Character Zero.flac
0:25.235 14535416 B cxx -- ---xx flac 0.4761 11 Tuning.flac
8:42.252 300817238 B cxx -- ---xx flac 0.5539 12 Possum.flac
14:11.427 490421726 B cxx -- ---xx flac 0.5454 13 Fuego.flac
14:47.551 511229636 B cxx -- ---xx flac 0.5585 14 Gotta Jibboo.flac
4:56.334 170688416 B cxx -- ---xx flac 0.5592 15 Golgi Apparatus.flac
6:46.176 233957492 B cxx -- ---xx flac 0.5207 16 What's The Use_.flac
21:17.813 736020548 B cxx -- ---xx flac 0.5380 17 You Enjoy Myself.flac
0:41.753 24049676 B cxx -- ---xx flac 0.4773 18 Tuning.flac
13:39.074 471786554 B cxx -- ---xx flac 0.5653 19 Soul Planet.flac
1:16.979 44340008 B cxx -- ---xx flac 0.5823 20 Auld Lang Syne.flac
8:23.170 289825940 B cxx -- ---xx flac 0.5655 21 Free.flac
18:53.549 652924478 B cxx -- ---xx flac 0.5449 22 A Song I Heard the Ocean Sing.flac
8:26.684 291850130 B cxx -- ---xx flac 0.5526 23 Moma Dance.flac
5:02.944 174495698 B cxx -- ---xx flac 0.5437 24 Prince Caspian.flac
6:26.386 222558506 B cxx -- ---xx flac 0.5428 25 Wading In The Velvet Sea.flac
7:43.382 266908172 B cxx -- ---xx flac 0.5846 26 First Tube.flac
3:48.513 131623700 B cxx -- ---xx flac 0.4926 27 Encore Break.flac
7:23.338 255362906 B cxx -- ---xx flac 0.5579 28 Loving Cup.flac
235:45.404 8147753744 B 0.5492 (28 files)

Show Checksums
ffp
01 Tuning.flac:e28be41112699795fbcb1db30a46426b
02 Carini.flac:841f96d3ddd971986981e7157d907251
03 Suzy Greenberg.flac:5877843fb9d60f8aa5a4d451a8c11094
04 My Friend, My Friend.flac:0b96ea1f5f51e4c0903ce2753b588084
05 Fluffhead.flac:ec08e7df5437ec9bfbba0d6ac25efee1
06 Reba.flac:8dff0588c03db29dc99684cdbbb29069
07 Poor Heart.flac:f0a6004bf1c17e709759995f26ec723b
08 46 Days.flac:7947fd163d8de896db9fd3e6231e8872
09 Maze.flac:ca17ec4cd474f4a645d064d3545a14e9
10 Character Zero.flac:c8b3e94b1a37ce78bc7a5f3ff9bf9342
11 Tuning.flac:8ede2f1de018d6af4f522f3fc5ab0b72
12 Possum.flac:4a252f5ebf4cfc8b96ebda4a6954d911
13 Fuego.flac:a7192fa34730069faf643fb57a2c8570
14 Gotta Jibboo.flac:5a0ce0902c66255f96c4ed6cc42541fe
15 Golgi Apparatus.flac:68d0d8f5b1488c0e86bacf90eefa0dec
16 What's The Use_.flac:5dc38fc360039f0031a12f58dd0a60fa
17 You Enjoy Myself.flac:d3cc8abc316aa4e7e2eacf3ee885dbc1
18 Tuning.flac:20e3b4fc840d3eb180cdd94046826328
19 Soul Planet.flac:bc90c546773341035fc0afd2d36bb472
20 Auld Lang Syne.flac:98aa954471a974691edccb04133a451e
21 Free.flac:8337b7b577fa06c67b5047eb752e59c0
22 A Song I Heard the Ocean Sing.flac:985809efa00dc251c8483805bdabf4dd
23 Moma Dance.flac:1418c4599bac2af93c97bac3d9f86c51
24 Prince Caspian.flac:cce21cd16de84cfa3b3ce4ffdb93506f
25 Wading In The Velvet Sea.flac:48b66c13be618ad72c6dd614d6986c91
26 First Tube.flac:6514f312e8a80bfc56f04a8273fa56f7
27 Encore Break.flac:16bf7d2fdfffb4d4de8df822001347f1
28 Loving Cup.flac:622e8cddeb30a070690b4769a12ef7e1
flac-md5
5b4a734eba813b1031f4e91b79472965 *01 Tuning.flac
8f8b769a429217706d26510d62fc900a *02 Carini.flac
dea2d1efb59411004b66e4cc4af42767 *03 Suzy Greenberg.flac
4abc0aa0f713c0fc0b3708df428af6eb *04 My Friend, My Friend.flac
cacd4e0bce279ac7106da0f567bbcc5a *05 Fluffhead.flac
0b38c7f009528839b4566def6ed33537 *06 Reba.flac
8e7ff60288c9cd669f95c81035722074 *07 Poor Heart.flac
6c819b51ebc34333fa0d8d684cc9b494 *08 46 Days.flac
768478c4525abe6f4cf0bd8d61f52806 *09 Maze.flac
dab7a9894473ecef9bc2962131b19637 *10 Character Zero.flac
f779ae7f90f55d8bbfa715bd7718a117 *11 Tuning.flac
320686344d784c3ab62062874beb3454 *12 Possum.flac
f4dbde30b604d359adbca5a8d13972ac *13 Fuego.flac
3ac560cc17b16b08235530b2f44817a6 *14 Gotta Jibboo.flac
3f6e03fbf087858c003a9d713901a323 *15 Golgi Apparatus.flac
8639b07138391b0fb61fd3b1b5f153c4 *16 What's The Use_.flac
5fa93c642fbab1e285b5d6c9a01a1d9e *17 You Enjoy Myself.flac
19d3f399bdf8dfd40e6102af890abb85 *18 Tuning.flac
0969add7d395127c907076809f5d49a1 *19 Soul Planet.flac
32382a2e5e122c14dfd218c82093993d *20 Auld Lang Syne.flac
8535222b7cbc88896daa2b03361dd725 *21 Free.flac
22edc6f56eed9be735c7b69d720e67db *22 A Song I Heard the Ocean Sing.flac
f692b5e4ea03995fa7826cb6e6755973 *23 Moma Dance.flac
75089bc30ad6ca51882fe95d1db4dd84 *24 Prince Caspian.flac
fa868ffefb899960efb2492cffbd1b6f *25 Wading In The Velvet Sea.flac
9b6c47526eb4036aca3ae84b95c89201 *26 First Tube.flac
ead82e5ca18a6d098692a6ffab65ecf9 *27 Encore Break.flac
02103986990d71113bbb5fd0c7edda26 *28 Loving Cup.flac

Comments
Add Comment
Other Sources (comments)
flac24 48khz ... (0) flac16 44.1khz ... (0) flac16 44.1khz ... (0) flac24 48khz ... (0) flac24 48khz ... (0) flac16 44.1khz ... (0) flac24 48khz ... (0) flac16 44.1khz... (0) flac16 48khz... (0) flac24 96khz ... (0) flac16 44.1khz... (0) flac24 96khz... (0) flac16 44.1khz ... (0) flac24 96khz ... (0) flac24 96khz ... (0) flac16 44.1kHz... (0) flac24 96kHz Schoeps... (0) flac24 48khz ... (0) flac16 48kHz Neumann... (0)
Date User Comment