Browse Collections Artists Sources   Search Dates

Add Show    List Management    Help


Phish 12/31/17
Madison Square Garden, New York, NY
Comments Add Comment    Source Collectors    Add to Collection    Add to Want List    History
Source # 140678 Other Sources
Entered by Matt Vernon
Checksums ffp , flac-md5
Disc Counts 0 / 0
Media Size
Date Circulated
Date Added
01/13/2018
01/13/2018
Source Summary flac24 96khz Recording Info: AKG C460b/CK8 > Sound Devices 744T (24bit/96k) > Samplitude Pro X3 Suite > FLAC/24. Section 2 Row 1 Seat 20 with the mic stand 9 feet high. Recorded and Mastered By Charlie Miller 
Source Information - Download Text | Download Zip
Phish - December 31, 2017
Madison Square Garden - New York, NY

Recording Info:
AKG C460b/CK8 > Sound Devices 744T (24bit/96k) > Samplitude Pro X3 Suite > FLAC/24
(1 DVD FLAC)

Recorded and Mastered By Charlie Miller
[email protected]
January 13, 2018

Notes:
-- Numerous balloon pops mainly in Set 3
-- Section 2 Row 1 Seat 20 with the mic stand 9 feet high
-- Chris Kuroda allowed me to set up next to him in the lighting booth

Set 1:
01 - Tuning
02 - Carini
03 - Suzy Greenburg
04 - My Friend, My Friend
05 - Fluffhead
06 - Reba
07 - Poor Heart
08 - 46 Days
09 - Maze
10 - Character Zero

Set 2:
11 - Tuning
12 - Possum
13 - Fuego
14 - Gotta Jibboo
15 - Golgi Apparatus
16 - What's The Use?
17 - You Enjoy Myself

Set 3:
18 - Tuning
19 - Soul Planet
20 - Auld Lang Syne
21 - Free
22 - A Song I Heard The Ocean Sing
23 - Moma Dance
24 - Prince Caspian
25 - Wading In The Velvet Sea
26 - First Tube

Encore:
27 - Encore Break
28 - Loving Cup


SHNTOOL OUTPUT:
length expanded size cdr WAVE problems fmt ratio filename
0:39.196 22577126 B cxx -- ---xx flac 0.4817 01 Tuning.flac
10:45.208 371639744 B cxx -- ---xx flac 0.5444 02 Carini.flac
6:20.812 219347552 B cxx -- ---xx flac 0.5516 03 Suzy Greenberg.flac
6:09.523 212845088 B cxx -- ---xx flac 0.5363 04 My Friend, My Friend.flac
16:56.941 585758054 B cxx -- ---xx flac 0.5233 05 Fluffhead.flac
14:20.355 495564524 B cxx -- ---xx flac 0.5302 06 Reba.flac
2:36.940 90397574 B cxx -- ---xx flac 0.5590 07 Poor Heart.flac
8:08.939 281628806 B cxx -- ---xx flac 0.5516 08 46 Days.flac
10:16.242 354955214 B cxx -- ---xx flac 0.5593 09 Maze.flac
6:33.188 226476044 B cxx -- ---xx flac 0.5488 10 Character Zero.flac
0:15.258 8788778 B cxx -- ---xx flac 0.4554 11 Tuning.flac
8:42.252 300817238 B cxx -- ---xx flac 0.5447 12 Possum.flac
14:11.427 490421726 B cxx -- ---xx flac 0.5441 13 Fuego.flac
14:47.551 511229636 B cxx -- ---xx flac 0.5581 14 Gotta Jibboo.flac
4:56.334 170688416 B cxx -- ---xx flac 0.5532 15 Golgi Apparatus.flac
6:46.176 233957492 B cxx -- ---xx flac 0.5261 16 What's The Use_.flac
21:17.813 736020548 B cxx -- ---xx flac 0.5346 17 You Enjoy Myself.flac
0:42.376 24408746 B cxx -- ---xx flac 0.4523 18 Tuning.flac
13:39.034 471763550 B cxx -- ---xx flac 0.5643 19 Soul Planet.flac
1:16.855 44268524 B cxx -- ---xx flac 0.5603 20 Auld Lang Syne.flac
8:23.277 289887494 B cxx -- ---xx flac 0.5476 21 Free.flac
18:53.512 652902836 B cxx -- ---xx flac 0.5450 22 A Song I Heard the Ocean Sing.flac
8:26.725 291873806 B cxx -- ---xx flac 0.5424 23 Moma Dance.flac
5:02.952 174500480 B cxx -- ---xx flac 0.5119 24 Prince Caspian.flac
6:26.422 222579332 B cxx -- ---xx flac 0.5194 25 Wading In The Velvet Sea.flac
7:42.111 266175998 B cxx -- ---xx flac 0.5677 26 First Tube.flac
3:49.665 132287366 B cxx -- ---xx flac 0.4663 27 Encore Break.flac
7:23.721 255583058 B cxx -- ---xx flac 0.5484 28 Loving Cup.flac
235:30.805 8139344750 B 0.5418 (28 files)

Show Checksums
ffp
01 Tuning.flac:8fbbc1adf15993e4888810eb691bd4f1
02 Carini.flac:9f81b97af9b57fb6d62f558c25836b69
03 Suzy Greenberg.flac:2223f2bef64fe866be3aa912eb6ada96
04 My Friend, My Friend.flac:180b61d258fd9190f3ef1f885ebfdd3c
05 Fluffhead.flac:f3535ed510c4dab8cd18beebc3753b7d
06 Reba.flac:da3ef96ff8c920b50e37aec10c6489fb
07 Poor Heart.flac:25aec296599f0b7b63cc25013a1d7e35
08 46 Days.flac:c6506705f28302cad4e9a3760a2f6bb5
09 Maze.flac:6620f588907b1efe5de94f84f28e633e
10 Character Zero.flac:003c1b073c3a9fabc7ac12e5f6a545e8
11 Tuning.flac:4669f8d46a7780fd4233ec9a8ad4284a
12 Possum.flac:32a5c6743f0440919a69e7344ee45c11
13 Fuego.flac:c1979f418708ff5dc2a4d86bbe5570e5
14 Gotta Jibboo.flac:e35961cd217643d12944f3a637468904
15 Golgi Apparatus.flac:28123b5e6108394b11032e62644f95d7
16 What's The Use_.flac:74df7292a539cb3bb5be1fbf6932ff53
17 You Enjoy Myself.flac:870dfd9f32c101aad9a83ea7cf89a125
18 Tuning.flac:29611592d2a5339f76e25f5c4208a028
19 Soul Planet.flac:b174fccfde257a9d4705f0f94d98aa3a
20 Auld Lang Syne.flac:1d3374f120599056dc2a74f182f1e080
21 Free.flac:b08599ab56f2ff80aad2a1efc41da439
22 A Song I Heard the Ocean Sing.flac:29dfe378f36f389acb19049cdde36b09
23 Moma Dance.flac:0ffeab7b6bf591d11af96e5ed43fd320
24 Prince Caspian.flac:729907608f8c19e0afecfcf881cda073
25 Wading In The Velvet Sea.flac:8dc970d6240298d0deeef0ab0bd09cde
26 First Tube.flac:089ac46cab468db3941bc16e9a9ed57d
27 Encore Break.flac:9b8ca2a181016226d6e677c1789dfa48
28 Loving Cup.flac:ce1db2b6d93800a3b7330ab667280b1c
flac-md5
32175ca333d54fbc367f50572631a8e1 *01 Tuning.flac
77561069e1531c985c844e4df5a90f74 *02 Carini.flac
006a779f5e7d5f82a2398ace2d7e30d5 *03 Suzy Greenberg.flac
94fd7574c68049bfef225ababe510222 *04 My Friend, My Friend.flac
d49474904a7dc1b27e7f1afc373a1fd5 *05 Fluffhead.flac
81fc2a3a3b5814ec305871fd96fd0a10 *06 Reba.flac
3b7c7ebbe7c862967e97abc79da9cb00 *07 Poor Heart.flac
98de785028b68e01850c56dbcf45b64f *08 46 Days.flac
c1427bbded7030788036e948bf843d5d *09 Maze.flac
3e4f2770c680f336da9cae2a4bfbb841 *10 Character Zero.flac
d3c3c130f7a6d55d506b12c6ea7130f5 *11 Tuning.flac
c04cac3cc0c4777c9914e22098e22cdc *12 Possum.flac
052f3b9ebd437107b7f2181cb11cf4f6 *13 Fuego.flac
3c6c9ea15e6a8cfd402d37b36f703aae *14 Gotta Jibboo.flac
9c130febc9e3b703db2342ee125a762b *15 Golgi Apparatus.flac
a52bd7714474a5bb37fd63fc13f8457b *16 What's The Use_.flac
a9355337c3236c69910ed5bfb307bfe6 *17 You Enjoy Myself.flac
8dd6aa4629d30b85ff11db73ed6b8ad5 *18 Tuning.flac
eca5e590a970d79b11a028905af8a573 *19 Soul Planet.flac
d6a7ee6065e2607a8e3dd12fd67d6453 *20 Auld Lang Syne.flac
b31465910129daf77ca3cef23dcea629 *21 Free.flac
7929ccd5d3bc5cb70fcafd9c969e5ad0 *22 A Song I Heard the Ocean Sing.flac
f64d18cbfc24d9f5d9b3c82cbb9c6ad8 *23 Moma Dance.flac
9e37b08fd02295b5b7388707f3ed68da *24 Prince Caspian.flac
dcb34e793cede073a7cc24a085a00867 *25 Wading In The Velvet Sea.flac
e4b3fed50d2695a8d047e501743c5239 *26 First Tube.flac
a0cdf65ef20b827c9c16365f9e87339e *27 Encore Break.flac
9cdbb4ef4d58cf91bf5c85cbce543cd9 *28 Loving Cup.flac

Comments
Add Comment
Other Sources (comments)
flac24 48khz ... (0) flac16 44.1khz ... (0) flac16 44.1khz ... (0) flac24 48khz ... (0) flac24 48khz ... (0) flac16 44.1khz ... (0) flac24 48khz ... (0) flac16 44.1khz... (0) flac16 48khz... (0) flac24 96khz ... (0) flac16 44.1khz... (0) flac24 96khz... (0) flac16 44.1khz ... (0) flac24 96khz ... (0) flac24 96khz ... (0) flac16 44.1kHz... (0) flac24 96kHz Schoeps... (0) flac24 48khz ... (0) flac16 48kHz Neumann... (0)
Date User Comment