Browse Collections Artists Sources   Search Dates

Add Show    List Management    Help


Grateful Dead 03/23/87
Hampton Coliseum, Hampton, VA
Comments Add Comment    Source Collectors    Add to Collection    Add to Want List    History
Source # 140679 Other Sources
Entered by Matt Vernon
Checksums ffp , flac-md5
Disc Counts 0 / 0
Media Size
Date Circulated
Date Added
01/14/2018
01/14/2018
Source Summary flac24; Recording Info: Ultra Matrix SBD > Cassette Master (TDK MA-R90); Transfer Info: Cassette Master (Nakamichi CR-7A) > Tascam DA-3000 (DSF 1-bit/5.8 MHz) > KORG AudioGate 4 > Samplitude Pro X3 Suite > FLAC/24; All Transfers and Mastering By Charlie Miller 
  Archive
Source Information - Download Text | Download Zip
Grateful Dead - March 23, 1987
Hampton Coliseum - Hampton, VA

Recording Info:
Ultra Matrix SBD > Cassette Master (TDK MA-R90)

Transfer Info:
Cassette Master (Nakamichi CR-7A) > Tascam DA-3000 (DSF 1-bit/5.8 MHz) >
KORG AudioGate 4 > Samplitude Pro X3 Suite > FLAC/24
(1 Disc FLAC)

All Transfers and Mastering By Charlie Miller
[email protected]
January 13, 2018

Notes:
-- Two sets of masters were used to make this show complete

Set 1:
01 - Tuning
02 - Touch Of Grey >
03 - Little Red Rooster
04 - Althea
05 - Me And My Uncle >
06 - Big River
07 - Iko Iko
08 - Tons Of Steel
09 - Feel Like A Stranger
10 - Don't Ease Me In

Set 2:
11 - Tuning
12 - Box Of Rain >
13 - Man Smart (Woman Smarter)
14 - Ship Of Fools
15 - Truckin' >
16 - Drums >
17 - Space >
18 - The Other One >
19 - Stella Blue >
20 - Throwing Stones >
21 - Turn On Your Lovelight

Encore:
22 - Encore Break
23 - U.S. Blues


SHNTOOL OUTPUT:
    length     expanded size    cdr  WAVE problems  fmt   ratio  filename
     0:57.596      33175628 B   cxx   --   ---xx   flac  0.6549  01 Tuning.flac
     6:01.766     208377182 B   cxx   --   ---xx   flac  0.6864  02 Touch Of Grey.flac
     7:35.971     262639514 B   cxx   --   ---xx   flac  0.6773  03 Little Red Rooster.flac
     9:15.340     319876022 B   cxx   --   ---xx   flac  0.6711  04 Althea.flac
     3:02.231     104965220 B   cxx   --   ---xx   flac  0.6839  05 Me And My Uncle.flac
     6:36.074     228138716 B   cxx   --   ---xx   flac  0.6792  06 Mexicali Blues.flac
     6:42.105     231612332 B   cxx   --   ---xx   flac  0.6793  07 Iko Iko.flac
     6:54.577     238796162 B   cxx   --   ---xx   flac  0.6707  08 Tons Of Steel.flac
     6:24.444     221439992 B   cxx   --   ---xx   flac  0.6831  09 Feel Like A Stranger.flac
     3:26.971     119215208 B   cxx   --   ---xx   flac  0.6841  10 Don't Ease Me In.flac
     1:38.051      56477492 B   cxx   --   ---xx   flac  0.6460  11 Tuning.flac
     4:55.712     170330120 B   cxx   --   ---xx   flac  0.6825  12 Box Of Rain.flac
     7:29.633     258988898 B   cxx   --   ---xx   flac  0.6900  13 Man Smart (Woman Smarter).flac
     9:10.003     316801862 B   cxx   --   ---xx   flac  0.6704  14 Ship Of Fools.flac
     9:53.707     341975414 B   cxx   --   ---xx   flac  0.6820  15 Truckin'.flac
     9:37.610     332703212 B   cxx   --   ---xx   flac  0.6543  16 Drums.flac
     5:34.938     192924452 B   cxx   --   ---xx   flac  0.6357  17 Space.flac
     8:51.513     306151298 B   cxx   --   ---xx   flac  0.6726  18 The Other One.flac
     8:38.802     298830236 B   cxx   --   ---xx   flac  0.6643  19 Stella Blue.flac
     7:57.422     274995056 B   cxx   --   ---xx   flac  0.6746  20 Throwing Stones.flac
     4:46.428     164982638 B   cxx   --   ---xx   flac  0.6801  21 Turn On Your Lovelight.flac
     1:56.253      66961664 B   cxx   --   ---xx   flac  0.6630  22 Encore Break.flac
     5:28.653     189304238 B   cxx   --   ---xx   flac  0.6843  23 US Blues.flac
   142:55.801    4939662556 B                            0.6737  (23 files)


Show Checksums
ffp
01 Tuning.flac:733b71fd40cbd10926d16dea8cba7013
02 Touch Of Grey.flac:77e378fc6a8dcc42b91ffc698b8b3c0f
03 Little Red Rooster.flac:dbccdbbe513761e692c4e03a40cc71a0
04 Althea.flac:1395b5e3adfd3ad120cc3914bcbb0e0f
05 Me And My Uncle.flac:ce299b497470165b9df57d3ce437c802
06 Mexicali Blues.flac:00383b5972fcc72d745f4ea87a071604
07 Iko Iko.flac:369e5c36b4243a801d8cf4b89c190a19
08 Tons Of Steel.flac:d23ad88b9c53b8b13e07c6b8777c57f1
09 Feel Like A Stranger.flac:96e85c8134d2180ded2d86a8be3a2d19
10 Don't Ease Me In.flac:b53eb8f76e0813842173c0d515e76471
11 Tuning.flac:114f514a8b1096ab74738548f245e23e
12 Box Of Rain.flac:b8dd4e4b88fba5638fd6a5aa88ac6aa1
13 Man Smart (Woman Smarter).flac:d23b0d4928a4dbfed1252d8c7ffbbbdc
14 Ship Of Fools.flac:fcd78739482fce10b9e67e767b7264f0
15 Truckin'.flac:b63cf0548878aa4ad5c1945c8ef88b12
16 Drums.flac:e7ac07de4c4fd5eee8f87a1a6b7b7c19
17 Space.flac:e91c02a433afdabbfcf4de2f525f3b7d
18 The Other One.flac:5a6f9202cca0d98b24cf5d1ef0632e00
19 Stella Blue.flac:fd7d2bf460822ef780885625fb007e09
20 Throwing Stones.flac:074a1713bda361bcee0cd03781d45338
21 Turn On Your Lovelight.flac:f900e93d6fa8d52ede31a4107aa0efc2
22 Encore Break.flac:21bfba4d2147ddd73524bd884066e4b2
23 US Blues.flac:330c9cf66b131dfb335418b5628e5eb1
flac-md5
ed795b7c1739db8f554048114f187f8d *01 Tuning.flac
3bf66cf76d7063c3fe1104ca995ba473 *02 Touch Of Grey.flac
af09010b5f8aa3cfb814739fb98540da *03 Little Red Rooster.flac
3caac755c041a14e8fcb42fb909afda3 *04 Althea.flac
06284e0fa95fc4b5a6cd89bfeda6a487 *05 Me And My Uncle.flac
19b14d22a844234d7a68274573e72dc9 *06 Mexicali Blues.flac
3d26862e9c091f6ef8db2a9c10688f50 *07 Iko Iko.flac
f60d7bb1dceec61dcfb9a013be9b3169 *08 Tons Of Steel.flac
d171496aeead66c5db3496a98802df2b *09 Feel Like A Stranger.flac
48e8b66dfc0a78c5b853f69845a50cd4 *10 Don't Ease Me In.flac
0c06319c2cceef33dd2334f8b3861d81 *11 Tuning.flac
dae9601ec143032a91ee0c0d1c196a54 *12 Box Of Rain.flac
34362da96b99cf2485a851723bc849c6 *13 Man Smart (Woman Smarter).flac
28c30279f3994bddcdf1eda6bb16a46f *14 Ship Of Fools.flac
ec65184f7411f23d2a13d5484e51d73f *15 Truckin'.flac
3b121d5fa7ac12464915ef22c7370f40 *16 Drums.flac
e73ea978ab7d5803d2828d69d8c07fa8 *17 Space.flac
7832cef17d3db271673ae11795f85b8d *18 The Other One.flac
b382d268e083f88b4d1e8bb698295bf3 *19 Stella Blue.flac
cadd02beab6ec0eb0bac73e732d11a74 *20 Throwing Stones.flac
b0e6c1fda6c43f84886e7862477095bf *21 Turn On Your Lovelight.flac
6cbdfebe3e5f3eb16144d12895635da2 *22 Encore Break.flac
d63b21db6d92b2bac22d13570c6eef84 *23 US Blues.flac

Comments
Add Comment
Other Sources (comments)
FOB Schoeps CMC44 > Oade... (1) flac16; Source:... (0) flac16; taper : Joe... (0) flac16; Nakamichi... (0) flac16; Recording... (0) flac16; 2 AKG 451s... (0) flac16; Master... (0) flac24; Master... (0) flac24; Updated... (0) flac16; Recording... (2) flac24; Patched &... (0) flac16; Patched... (0) flac24; Matrix 2... (0) flac16; Matrix 2... (0) DTS-Audio-CD 5.1... (0) flac16/48kHz; 5.1... (0)
Date User Comment