Browse Collections Artists Sources   Search Dates

Add Show    List Management    Help


Grateful Dead 03/23/87
Hampton Coliseum, Hampton, VA
Comments Add Comment    Source Collectors    Add to Collection    Add to Want List    History
Source # 140683 Other Sources
Entered by Matt Vernon
Checksums ffp , flac-md5
Disc Counts 0 / 0
Media Size Compressed: 856.64 MB (898256896 bytes)
Date Circulated
Date Added
01/14/2018
01/14/2018
Source Summary flac16; Recording Info: Ultra Matrix SBD > Cassette Master (TDK MA-R90); Transfer Info: Cassette Master (Nakamichi CR-7A) > Tascam DA-3000 (DSF 1-bit/5.8 MHz) > KORG AudioGate 4 > Samplitude Pro X3 Suite > FLAC/24; All Transfers and Mastering By Charlie Miller 
  Archive
Source Information - Download Text | Download Zip
Grateful Dead - March 23, 1987
Hampton Coliseum - Hampton, VA

Recording Info:
Ultra Matrix SBD > Cassette Master (TDK MA-R90)

Transfer Info:
Cassette Master (Nakamichi CR-7A) > Tascam DA-3000 (DSF 1-bit/5.8 MHz) >
KORG AudioGate 4 > Samplitude Pro X3 Suite > FLAC/24
(1 Disc FLAC)

All Transfers and Mastering By Charlie Miller
[email protected]
January 13, 2018

Notes:
-- Two sets of masters were used to make this show complete
-- This file set is 16 bit

Set 1:
01 - Tuning
02 - Touch Of Grey >
03 - Little Red Rooster
04 - Althea
05 - Me And My Uncle >
06 - Big River
07 - Iko Iko
08 - Tons Of Steel
09 - Feel Like A Stranger
10 - Don't Ease Me In

Set 2:
11 - Tuning
12 - Box Of Rain >
13 - Man Smart (Woman Smarter)
14 - Ship Of Fools
15 - Truckin' >
16 - Drums >
17 - Space >
18 - The Other One >
19 - Stella Blue >
20 - Throwing Stones >
21 - Turn On Your Lovelight

Encore:
22 - Encore Break
23 - U.S. Blues


SHNTOOL OUTPUT:
    length     expanded size    cdr  WAVE problems  fmt   ratio  filename
     0:57.44       10158332 B   ---   --   ---xx   flac  0.5293  01 Tuning.flac
     6:01.58       63816860 B   ---   --   ---xx   flac  0.6253  02 Touch Of Grey.flac
     7:35.73       80433740 B   ---   --   ---xx   flac  0.6012  03 Little Red Rooster.flac
     9:15.25       97960844 B   ---   --   ---xx   flac  0.5809  04 Althea.flac
     3:02.17       32144828 B   ---   --   ---xx   flac  0.6203  05 Me And My Uncle.flac
     6:36.06       69868556 B   ---   --   ---xx   flac  0.6054  06 Mexicali Blues.flac
     6:42.08       70931660 B   ---   --   ---xx   flac  0.6114  07 Iko Iko.flac
     6:54.43       73130780 B   ---   --   ---xx   flac  0.5884  08 Tons Of Steel.flac
     6:24.33       67815260 B   ---   --   ---xx   flac  0.6249  09 Feel Like A Stranger.flac
     3:26.73       36510140 B   ---   --   ---xx   flac  0.6324  10 Don't Ease Me In.flac
     1:38.04       17296652 B   ---   --   ---xx   flac  0.4985  11 Tuning.flac
     4:55.53       52162700 B   ---   --   ---xx   flac  0.6137  12 Box Of Rain.flac
     7:29.48       79316540 B   ---   --   ---xx   flac  0.6358  13 Man Smart (Woman Smarter).flac
     9:10.00       97020044 B   ---   --   ---xx   flac  0.5690  14 Ship Of Fools.flac
     9:53.53      104729900 B   ---   --   ---xx   flac  0.6195  15 Truckin'.flac
     9:37.46      101891036 B   ---   --   ---xx   flac  0.5527  16 Drums.flac
     5:34.70       59082284 B   ---   --   ---xx   flac  0.4920  17 Space.flac
     8:51.39       93760172 B   ---   --   ---xx   flac  0.5902  18 The Other One.flac
     8:38.60       91516364 B   ---   --   ---xx   flac  0.5621  19 Stella Blue.flac
     7:57.32       84218108 B   ---   --   ---xx   flac  0.6068  20 Throwing Stones.flac
     4:46.32       50525708 B   ---   --   ---xx   flac  0.6150  21 Turn On Your Lovelight.flac
     1:56.19       20507132 B   ---   --   ---xx   flac  0.5621  22 Encore Break.flac
     5:28.50       57976844 B   ---   --   ---xx   flac  0.6305  23 US Blues.flac
   142:55.61     1512774484 B                            0.5937  (23 files)




Show Checksums
ffp
01 Tuning.flac:dd6e2d8f7e1f16c1a8782a879c171786
02 Touch Of Grey.flac:7af9858ad37249ca9400722975eb1048
03 Little Red Rooster.flac:9cc4bd703a78e6492c29ac19b6c18d95
04 Althea.flac:98c767132f6f2b35e7232bf1a52557ad
05 Me And My Uncle.flac:ecabf2f61d161aa7bbe1f17aa603b471
06 Mexicali Blues.flac:7bef6f892fe07f50c2dd066df5d2db45
07 Iko Iko.flac:517b0737ff95f173ccdc5d4ee09ccfa0
08 Tons Of Steel.flac:836cc65117c5d23b8433df0e95f31102
09 Feel Like A Stranger.flac:370bda2aa6f42a0b21f7cbba18287f14
10 Don't Ease Me In.flac:eabe5c19d11dbea409fdf24e43bbab80
11 Tuning.flac:f0a0b1bd846cf8d08b8f5b7fb141cde7
12 Box Of Rain.flac:a311463c3f43371cd5fa67356fc0da19
13 Man Smart (Woman Smarter).flac:1ca2f0928f4b9fdfec80c4346aa504ba
14 Ship Of Fools.flac:b5be949e7e8c305237071ecb7f19006b
15 Truckin'.flac:af3877af08e5c3ca573668d403d0071d
16 Drums.flac:004c0ed1b2120d2f0f4ad6b0a73ca173
17 Space.flac:b70a2f2b10ef013218e0f8ba3f9c042c
18 The Other One.flac:cc5a66349f72f278953092b312e37ed0
19 Stella Blue.flac:6bebf5b927d247cd4c7863d0c2f7c902
20 Throwing Stones.flac:b85cce6683b9528de4b8bb7b48f797ce
21 Turn On Your Lovelight.flac:30e908e2a1e160fdb883aa7a6d03bcb1
22 Encore Break.flac:677f3ba89280f469f7b4f1c6de791d17
23 US Blues.flac:0b97f131a6a862b098e7478d22dc725c
flac-md5
ee6b62459cb30cb80d52b1944516cbf4 *01 Tuning.flac
117a840a10786a929891b8f6a637841d *02 Touch Of Grey.flac
6fad72e02d50061bf2bd54b700a8db24 *03 Little Red Rooster.flac
ed819e5fdbc5248f4f5712842032fb3d *04 Althea.flac
96fa1cdc7f8cbc2ff6dc5516942174e4 *05 Me And My Uncle.flac
a679ebd475060de07f3c9861bba7419c *06 Mexicali Blues.flac
c4822f675bb3da98581535f1396f7aaa *07 Iko Iko.flac
b297c4ca61648c032ae67e651cdc790e *08 Tons Of Steel.flac
0fe4d9b3e2285ad50e2a5957bad33154 *09 Feel Like A Stranger.flac
d4c9793a8675549a71bf17a4f3bf77fc *10 Don't Ease Me In.flac
fc508016cd9b859854e2b9c3cf2b8abc *11 Tuning.flac
6ed485dcd74945e7a502108fece1ee85 *12 Box Of Rain.flac
ad9cacc4a9b2df1440d71cc93a05d1e4 *13 Man Smart (Woman Smarter).flac
50692ffee30c2e576c4742802c0c7777 *14 Ship Of Fools.flac
877f4f7b3af50f008a73ac9d44cf50b4 *15 Truckin'.flac
b96556bf7786336e54bafaf3864083f4 *16 Drums.flac
b789d6ea866b0a91b6bfd0fd7af0ee03 *17 Space.flac
c6235bf3aee7514f5a76758b16ecd0d9 *18 The Other One.flac
76af8a4deadf0af3c1229af42879c35f *19 Stella Blue.flac
cc48d26271918796a822e4b30b44cee5 *20 Throwing Stones.flac
763e785f2ec0e18c8d2c50bd0200bb2c *21 Turn On Your Lovelight.flac
7d73707c4b5b28d7fad383cfef913a96 *22 Encore Break.flac
ee57a2a9652938c0267668b76f5250cb *23 US Blues.flac

Comments
Add Comment
Other Sources (comments)
FOB Schoeps CMC44 > Oade... (1) flac16; Source:... (0) flac16; taper : Joe... (0) flac16; Nakamichi... (0) flac16; Recording... (0) flac16; 2 AKG 451s... (0) flac16; Master... (0) flac24; Master... (0) flac24; Updated... (0) flac24; Recording... (0) flac24; Patched &... (0) flac16; Patched... (0) flac24; Matrix 2... (0) flac16; Matrix 2... (0) DTS-Audio-CD 5.1... (0) flac16/48kHz; 5.1... (0)
Date User Comment
06/13/2018 germain Track 05 is mislabeled as "Mexicali Blues" but as the text states is actually "Big River".
06/13/2018 germain Track 06