Browse Collections Artists Sources   Search Dates

Add Show    List Management    Help


Grateful Dead 01/28/87
San Francisco Civic Auditorium, San Francisco, CA
Comments Add Comment    Source Collectors    Add to Collection    Add to Want List    History
Source # 140689 Other Sources
Entered by Matt Vernon
Checksums ffp , flac-md5
Disc Counts 0 / 0
Media Size
Date Circulated
Date Added
01/15/2018
01/15/2018
Source Summary flac24; Recording Info: UltraMatrix SBD > Cassette Master (TDK MA-R90); Transfer Info: Cassette Master (Nakamichi CR-7A) > Tascam DA-3000 (DSF 1-bit/5.8 MHz) > KORG AudioGate 4 > Samplitude Pro X3 Suite > FLAC/24; All Transfers and Mastering By Charlie Miller 
  Archive
Source Information - Download Text | Download Zip
Grateful Dead - January 28, 1987
San Francisco Civic Auditorium - San Francisco, CA

Recording Info:
UltraMatrix SBD > Cassette Master (TDK MA-R90)

Transfer Info:
Cassette Master (Nakamichi CR-7A) > Tascam DA-3000 (DSF 1-bit/5.8 MHz) >
KORG AudioGate 4 > Samplitude Pro X3 Suite > FLAC/24
(1 Disc FLAC)

All Transfers and Mastering By Charlie Miller
[email protected]
January 15, 2018

Notes:
-- Two sets of masters were used to make this show complete

Set 1:
01 - Tuning
02 - Shakedown Street
03 - Get Back
04 - Peggy-O
05 - Walkin' Blues
06 - It Must Have Been The Roses
07 - It's All Over Now
08 - Row Jimmy
09 - My Brother Esau
10 - Bird Song
11 - Jack Straw

Set 2:
12 - Tuning
13 - When Push Comes To Shove >
14 - Samson And Delilah
15 - Black Muddy River >
16 - He's Gone >
17 - Spoonful >
18 - Drums >
19 - Jam >
20 - Eyes Of The World >
21 - Black Peter >
22 - Around And Around >
23 - Sugar Magnolia

Encore:
24 - Encore Break
25 - U.S. Blues


SHNTOOL OUTPUT:
    length     expanded size    cdr  WAVE problems  fmt   ratio  filename
     0:39.877      22969094 B   cxx   --   ---xx   flac  0.6752  01 Tuning.flac
    13:19.551     460541222 B   cxx   --   ---xx   flac  0.6987  02 Shakedown Street.flac
     5:55.019     204490718 B   cxx   --   ---xx   flac  0.7058  03 Get Back.flac
     5:59.576     207115940 B   cxx   --   ---xx   flac  0.6993  04 Peggy-O.flac
     6:13.863     215345312 B   cxx   --   ---xx   flac  0.6906  05 Walkin' Blues.flac
     7:48.768     270010400 B   cxx   --   ---xx   flac  0.6882  06 It Must Have Been The Roses.flac
     6:48.761     235446410 B   cxx   --   ---xx   flac  0.7017  07 It's All Over Now.flac
    12:22.004     427394126 B   cxx   --   ---xx   flac  0.6894  08 Row Jimmy.flac
     4:57.376     171288338 B   cxx   --   ---xx   flac  0.6958  09 My Brother Esau.flac
    11:15.927     389334152 B   cxx   --   ---xx   flac  0.7046  10 Bird Song.flac
     5:46.676     199685570 B   cxx   --   ---xx   flac  0.6983  11 Jack Straw.flac
     0:55.699      32082866 B   cxx   --   ---xx   flac  0.6287  12 Tuning.flac
     4:25.182     152744732 B   cxx   --   ---xx   flac  0.6921  13 When Push Comes To Shove.flac
     7:11.800     248717054 B   cxx   --   ---xx   flac  0.6919  14 Samson And Delilah.flac
     6:01.668     208320770 B   cxx   --   ---xx   flac  0.6862  15 Black Muddy River.flac
    10:49.996     374397698 B   cxx   --   ---xx   flac  0.6807  16 He's Gone.flac
     6:47.574     234762854 B   cxx   --   ---xx   flac  0.6774  17 Soonful.flac
     9:37.785     332803976 B   cxx   --   ---xx   flac  0.6812  18 Drums.flac
     2:01.256      69843524 B   cxx   --   ---xx   flac  0.6663  19 Jam.flac
     6:55.518     239338652 B   cxx   --   ---xx   flac  0.6914  20 Eyes Of The World.flac
    10:03.094     347382038 B   cxx   --   ---xx   flac  0.6733  21 Black Peter.flac
     4:34.357     158029532 B   cxx   --   ---xx   flac  0.6826  22 Around And Around.flac
     9:03.380     312987062 B   cxx   --   ---xx   flac  0.6847  23 Sugar Magnolia.flac
     2:21.800      81677048 B   cxx   --   ---xx   flac  0.6524  24 Encore Break.flac
     5:28.729     189347852 B   cxx   --   ---xx   flac  0.6819  25 US Blues.flac
   167:25.236    5786056940 B                            0.6889  (25 files)


Show Checksums
ffp
01 Tuning.flac:6ca607610e4c08b7f2cad9e1ff037b25
02 Shakedown Street.flac:1e975ed7b3e51b520963f68b7b3a5cd1
03 Get Back.flac:90e36094ef00a2cab1f7a6fab0799ecb
04 Peggy-O.flac:b0cde70835d2d24f9ff81b89d62aedfb
05 Walkin' Blues.flac:aec3a259a433da65a70109bb94fc69ca
06 It Must Have Been The Roses.flac:9e538eaf980d4d7950b9b5481b78f54c
07 It's All Over Now.flac:b1d9f2fa635ef434d3ddbb86054be075
08 Row Jimmy.flac:1c58fa6312265251f67a201aa1b578f8
09 My Brother Esau.flac:ffcaa1af8e093cac25b3d176e07f4893
10 Bird Song.flac:6252b1150dd3c6d352d6d052ac277bba
11 Jack Straw.flac:d4caef9dd6d3ed88aa150e9488202d67
12 Tuning.flac:a288555a3962223958c34ef7798578ac
13 When Push Comes To Shove.flac:8b3a69393a8e7ff4e460e489321bf7ff
14 Samson And Delilah.flac:adad0ccdc96d48faeb98d46c8dd89fb1
15 Black Muddy River.flac:e261c474be8b2f4973ced1b95a5b41c6
16 He's Gone.flac:ac5204057c00daa437356b56c1ed7c94
17 Soonful.flac:7f0f6083a7b6659493cb793bb7e75111
18 Drums.flac:de5c4ff2e448cc55f082cfe70289ea7f
19 Jam.flac:5c9821c1cbecf1195b96a3de24b209a3
20 Eyes Of The World.flac:ddf266a28f068f531886b67b4768224d
21 Black Peter.flac:3092edbd1b235da59cec6e46fd0c5d80
22 Around And Around.flac:8c2990d0cd078a13e632774fc7b334bd
23 Sugar Magnolia.flac:47a23d6a86b3ec73d39ffd22027d987d
24 Encore Break.flac:0b227f4d6cad2d9f3c29e348393c7fd3
25 US Blues.flac:fa35228b6dc15d0ee519cb2c6f246112
flac-md5
34bbbbe8bc15c904aed82b4bd15e278f *01 Tuning.flac
47cf4f1a27204603a4886191227e302c *02 Shakedown Street.flac
2b1e6221ec94383c6681acb7705a4c71 *03 Get Back.flac
d6ec3d8bf21047b2c88b3e17ea3d315e *04 Peggy-O.flac
d068840d559aa9afd4885d6bba2abb4c *05 Walkin' Blues.flac
767a809bbab4b1840a4616bc932d32b9 *06 It Must Have Been The Roses.flac
e9453a6a73351a5998f4d4f91fcee507 *07 It's All Over Now.flac
89c292fe968bfb09ec11b8e140f7804c *08 Row Jimmy.flac
9df22b6ac9e9682f34c20b3982caecdc *09 My Brother Esau.flac
d19c6d465dfb1a304b344f08ae0737d3 *10 Bird Song.flac
d728691bf2ea5004d56e152a4c25c8c5 *11 Jack Straw.flac
4e871c0851707e62a501a82fe1891067 *12 Tuning.flac
6c54cf0008b6449f8bcb085a9f042bef *13 When Push Comes To Shove.flac
5297965a9ecd7d9e79375ea54cc93664 *14 Samson And Delilah.flac
1dce0b1244bfca1d2fb9c3344d6d53ba *15 Black Muddy River.flac
186c08665b69a3a32fbf3d18f393e7b4 *16 He's Gone.flac
98071b7b2ccbed004a794c20390fb6b4 *17 Soonful.flac
d9b6cab75547aa521f6a2d80ed09b937 *18 Drums.flac
4b5452aaaccbb54f89be6d08b654150c *19 Jam.flac
60ca93f1c334cac985c3c56d2816b1d9 *20 Eyes Of The World.flac
e31aedd29b9b4cd2fac41295cbbf16f3 *21 Black Peter.flac
ad7ab06e4703544e88008f79f6fd3e18 *22 Around And Around.flac
9bed22958881636bb0ee3e7512b3edf8 *23 Sugar Magnolia.flac
0195e71635f9d0e6a3ffd1a92c2f5fe0 *24 Encore Break.flac
baae348a71202a61121ffd9fe323b101 *25 US Blues.flac

Comments
Add Comment
Other Sources (comments)
Source: SBDcm(Healy... (7) flac16; Source:... (0) flac16; Recording... (0) flac16; OTS AUD: 2x... (0) flac24; OTS AUD: 2x... (0) flac16; Matrix 2... (0) DTS-Audio-CD 5.1... (0) flac16/48kHz; 5.1... (0) flac24; lineage:... (0) flac16; Recording... (0)
Date User Comment
01/21/2018 norm I think this is a dupe of 140689
01/21/2018 [email protected] this is 140689