Browse Collections Artists Sources   Search Dates

Add Show    List Management    Help


Grateful Dead 01/29/87
San Francisco Civic Auditorium, San Francisco, CA
Comments Add Comment    Source Collectors    Add to Collection    Add to Want List    History
Source # 140690 Other Sources
Entered by Matt Vernon
Checksums ffp , flac-md5
Disc Counts 0 / 0
Media Size
Date Circulated
Date Added
01/15/2018
01/15/2018
Source Summary flac24; Recording Info: UltraMatrix SBD > Cassette Master (TDK MA-R90); Transfer Info: Cassette Master (Nakamichi CR-7A) > Tascam DA-3000 (DSF 1-bit/5.8 MHz) > KORG AudioGate 4 > Samplitude Pro X3 Suite > FLAC/24; All Transfers and Mastering By Charlie Miller 
  Archive
Source Information - Download Text | Download Zip
Grateful Dead - January 29, 1987
San Francisco Civic Auditorium - San Francisco, CA

Recording Info:
UltraMatrix SBD > Cassette Master (TDK MA-R90)

Transfer Info:
Cassette Master (Nakamichi CR-7A) > Tascam DA-3000 (DSF 1-bit/5.8 MHz) >
KORG AudioGate 4 > Samplitude Pro X3 Suite > FLAC/24
(1 Disc FLAC)

All Transfers and Mastering By Charlie Miller
[email protected]
January 15, 2018

Notes:
-- Two sets of masters were used to make this show complete
-- The ambient mics are tunred on at 1:06 of Hell In A Bucket

Set 1:
01 - Tuning
02 - Hell In A Bucket >
03 - Sugaree
04 - El Paso
05 - Loser
06 - Little Red Rooster
07 - Brown Eyed Women
08 - Cassidy >
09 - Don't Ease Me In

Set 2:
10 - Tuning
11 - Scarlet Begonias >
12 - Fire On The Mountain
13 - Looks Like Rain >
14 - Terrapin Station >
15 - Drums >
16 - I Need A Miracle >
17 - Stella Blue >
18 - Goin' Down The Road Feeling Bad >
19 - Johnny B. Goode

Encore:
20 - Encore Break
21 - It's All Over Now, Baby Blue


SHNTOOL OUTPUT:
   length     expanded size    cdr  WAVE problems  fmt   ratio  filename
    5:22.433     185721578 B   cxx   --   ---xx   flac  0.4686  01 Tuning.flac
    6:13.718     215261678 B   cxx   --   ---xx   flac  0.6778  02 Hell In A Bucket.flac
    9:23.795     324745850 B   cxx   --   ---xx   flac  0.6947  03 Sugaree.flac
    5:49.848     201512504 B   cxx   --   ---xx   flac  0.6906  04 El Paso.flac
    7:45.720     268254878 B   cxx   --   ---xx   flac  0.6951  05 Loser.flac
   10:08.405     350441456 B   cxx   --   ---xx   flac  0.6876  06 Little Red Rooster.flac
    6:14.186     215530970 B   cxx   --   ---xx   flac  0.6948  07 Brown Eyed Women.flac
    5:34.224     192512978 B   cxx   --   ---xx   flac  0.7036  08 Cassidy.flac
    3:45.271     129756290 B   cxx   --   ---xx   flac  0.7008  09 Don't Ease Me In.flac
    0:26.110      15039338 B   cxx   --   ---xx   flac  0.6576  10 Tuning.flac
    8:09.493     281947982 B   cxx   --   ---xx   flac  0.7031  11 Scarlet Begonias.flac
   10:30.531     363185840 B   cxx   --   ---xx   flac  0.7034  12 Fire On The Mountain.flac
    8:11.258     282964388 B   cxx   --   ---xx   flac  0.6924  13 Looks Like Rain.flac
   11:49.516     408681188 B   cxx   --   ---xx   flac  0.6918  14 Terrapin Station.flac
    8:42.054     300703346 B   cxx   --   ---xx   flac  0.7111  15 Drums.flac
    4:01.039     138838526 B   cxx   --   ---xx   flac  0.6984  16 I Need A Miracle.flac
    7:31.952     260324348 B   cxx   --   ---xx   flac  0.6808  17 Stella Blue.flac
    5:57.124     205703360 B   cxx   --   ---xx   flac  0.7077  18 Goin' Down The Road Feeling Bad.flac
    3:55.229     135492080 B   cxx   --   ---xx   flac  0.7050  19 Johnny B Goode.flac
    2:25.982      84085568 B   cxx   --   ---xx   flac  0.6704  20 Encore Break.flac
    8:14.447     284801516 B   cxx   --   ---xx   flac  0.6872  21 It's All Over Now, Baby Blue.flac
  140:12.335    4845505662 B                            0.6861  (21 files)


Show Checksums
ffp
01 Tuning.flac:e3448acec3159413f91b16059dc86364
02 Hell In A Bucket.flac:8d1544180afba62e70145d555f4a75af
03 Sugaree.flac:03988bac1c6a8105ed8cc8f5fe221fc6
04 El Paso.flac:3f9fb9f0946e344efbae484335797cc8
05 Loser.flac:69fe1fadb5f9b3480bf1eecdf1de0c58
06 Little Red Rooster.flac:980d29fc02749d19c46282fe56e276e5
07 Brown Eyed Women.flac:d7c29b0608f973249e030186263afaed
08 Cassidy.flac:75b2a0b9e4810dabde303ce85fcc48f4
09 Don't Ease Me In.flac:c8730d0fa29dd00f37733f263d26e574
10 Tuning.flac:e7ea8ce4ed42dde76956e19db7fc3eb4
11 Scarlet Begonias.flac:a9349927182939c09190b2b480d92d5f
12 Fire On The Mountain.flac:c7543483b1ae370de95b0acb9bd78444
13 Looks Like Rain.flac:092a53c1b3933072a1e76e7c66de6274
14 Terrapin Station.flac:09bd1d14c425f0f414fa4ca70007119f
15 Drums.flac:e8edf204cde199e222b58cae68ba1896
16 I Need A Miracle.flac:91dc803dc96f9a3f3bfcaed788d06d01
17 Stella Blue.flac:fa385c19996c9c17e72adf9c524b8c7e
18 Goin' Down The Road Feeling Bad.flac:b48b8aecce7a2eea1c56523218083067
19 Johnny B Goode.flac:b276008ae67a6811cd5d232719a47110
20 Encore Break.flac:01a5976f53a7d8c857726ef0c7144c49
21 It's All Over Now, Baby Blue.flac:6ef5d8eb92af52ec8029b27f687a5a70
flac-md5
72baf618c4b62c571dac6b374359417f *01 Tuning.flac
afa31b5d85ead2a11111aac3e76df2dc *02 Hell In A Bucket.flac
e5c98cac9cedfa472c4e0e0897d6c7ca *03 Sugaree.flac
b02b7a2c4eac99b90d36bfab21943c6d *04 El Paso.flac
116ab12a37420008154724dc4827da55 *05 Loser.flac
6300c141de5029ee9319aedceb67f069 *06 Little Red Rooster.flac
0f325697481b0d1909fae16f5d8f0793 *07 Brown Eyed Women.flac
6f7ef16ef6a8b3e3a0eee953518cad12 *08 Cassidy.flac
bc2b64933066c027fc6fcde9496c1df1 *09 Don't Ease Me In.flac
1f6b6f13fe54a6bdd24ce86f086019de *10 Tuning.flac
e3c6fe6894eae47fca04a7899491d485 *11 Scarlet Begonias.flac
ad4f228f78dc57d9dc143a8d88fb78e9 *12 Fire On The Mountain.flac
549d4c9fe83a867f7a5761be97b11b8d *13 Looks Like Rain.flac
1034626a12665d82ed9019296f68f082 *14 Terrapin Station.flac
20d35dc0cc0ea57533ddbe8b539eae43 *15 Drums.flac
249d48fe0d785578e080cf4c75be0d7b *16 I Need A Miracle.flac
99cb92524713349ddcb4e2a32777799d *17 Stella Blue.flac
649c2d326a8dfadbf3a1a1a66243c0ba *18 Goin' Down The Road Feeling Bad.flac
0807c5d9aaf804a9bd100cca2aa0df23 *19 Johnny B Goode.flac
0b2ab7f53f5f89eea5ea2edeeb6920c6 *20 Encore Break.flac
7a198bb82a9d3c78a08fd37b419d4286 *21 It's All Over Now, Baby Blue.flac

Comments
Add Comment
Other Sources (comments)
Healey ultramix: PCM ->... (2) flac16; Source:... (0) flac16; Recording... (0) flac16; Source:... (0) flac16; Recording... (0) flac16; Source Info:... (0) flac16; Matrix 2... (0) DTS-Audio-CD 5.1... (0) flac16/48kHz; 5.1... (0)
Date User Comment