Browse Collections Artists Sources   Search Dates

Add Show    List Management    Help


Grateful Dead 01/30/87
San Francisco Civic Auditorium, San Francisco, CA
Comments Add Comment    Source Collectors    Add to Collection    Add to Want List    History
Source # 140697 Other Sources
Entered by Matt Vernon
Checksums flac-md5 , ffp
Disc Counts 0 / 0
Media Size
Date Circulated
Date Added
01/16/2018
01/16/2018
Source Summary flac24; Recording Info: UltraMatrix SBD > Cassette Master (TDK MA-R90); Transfer Info: Cassette Master (Nakamichi CR-7A) > Tascam DA-3000 (DSF 1-bit/5.8 MHz) > KORG AudioGate 4 > Samplitude Pro X3 Suite > FLAC/24; All Transfers and Mastering By Charlie Miller 
  Archive
Source Information - Download Text | Download Zip
Grateful Dead - January 30, 1987
San Francisco Civic Auditorium - San Francisco, CA

Recording Info:
UltraMatrix SBD > Cassette Master (TDK MA-R90)

Transfer Info:
Cassette Master (Nakamichi CR-7A) > Tascam DA-3000 (DSF 1-bit/5.8 MHz) >
KORG AudioGate 4 > Samplitude Pro X3 Suite > FLAC/24
(1 Disc FLAC)

All Transfers and Mastering By Charlie Miller
[email protected]
January 15, 2018

Notes:
-- Two sets of masters were used to make this show complete

Set 1:
01 - Tuning
02 - Touch Of Grey
03 - New Minglewood Blues
04 - Candyman
05 - Me And My Uncle >
06 - Mexicali Blues
07 - When Push Comes To Shove
08 - Beat It On Down The Line >
09 - The Promised Land >
10 - China Cat Sunflower >
11 - I Know You Rider

Set 2:
12 - Tuning
13 - Iko Iko >
14 - Man Smart (Woman Smarter)
15 - Ship Of Fools
16 - Estimated Prophet >
17 - Truckin' >
18 - Drums >
19 - The Other One >
20 - Wharf Rat >
21 - Throwing Stones >
22 - Not Fade Away

Encore:
23 - Not Fade Away >
24 - Brokedown Palace


SHNTOOL OUTPUT:
    length     expanded size    cdr  WAVE problems  fmt   ratio  filename
     0:34.090      19635896 B   cxx   --   ---xx   flac  0.6535  01 Tuning.flac
     6:23.665     220991168 B   cxx   --   ---xx   flac  0.7021  02 Touch Of Grey.flac
     8:10.960     282793058 B   cxx   --   ---xx   flac  0.6995  03 New Minglewood Blues.flac
     8:37.989     298361708 B   cxx   --   ---xx   flac  0.6857  04 Candyman.flac
     2:45.979      95603858 B   cxx   --   ---xx   flac  0.7042  05 Me And My Uncle.flac
     6:42.891     232065404 B   cxx   --   ---xx   flac  0.6928  06 Mexicali Blues.flac
     6:38.468     229517720 B   cxx   --   ---xx   flac  0.6876  07 When Push Comes To Shove.flac
     3:22.394     116579276 B   cxx   --   ---xx   flac  0.7145  08 Beat It On Down The Line.flac
     3:57.122     136582514 B   cxx   --   ---xx   flac  0.7034  09 Promised Land.flac
     4:55.652     170295698 B   cxx   --   ---xx   flac  0.7023  10 China Cat Sunflower.flac
     5:42.887     197502974 B   cxx   --   ---xx   flac  0.7047  11 I Know You Rider.flac
     1:53.139      65168048 B   cxx   --   ---xx   flac  0.6450  12 Tuning.flac
     5:18.380     183387146 B   cxx   --   ---xx   flac  0.6938  13 Iko Iko.flac
     6:51.692     237134708 B   cxx   --   ---xx   flac  0.6873  14 Man Smart (Woman Smarter).flac
     9:11.524     317677766 B   cxx   --   ---xx   flac  0.6773  15 Ship Of Fools.flac
    10:46.361     372304238 B   cxx   --   ---xx   flac  0.6942  16 Estimated Prophet.flac
     8:55.332     308351012 B   cxx   --   ---xx   flac  0.6914  17 Truckin'.flac
    10:26.697     360977264 B   cxx   --   ---xx   flac  0.6542  18 Drums.flac
    10:13.459     353352494 B   cxx   --   ---xx   flac  0.6694  19 The Other One.flac
     8:53.449     307266446 B   cxx   --   ---xx   flac  0.6899  20 Wharf Rat.flac
     8:27.542     292344230 B   cxx   --   ---xx   flac  0.6864  21 Throwing Stones.flac
     7:37.131     263307290 B   cxx   --   ---xx   flac  0.6911  22 Not Fade Away.flac
     1:57.437      67643696 B   cxx   --   ---xx   flac  0.6875  23 Not Fade Away.flac
     6:21.703     219860720 B   cxx   --   ---xx   flac  0.6867  24 Brokedown Palace.flac
   154:45.943    5348704332 B                            0.6877  (24 files)


Show Checksums
flac-md5
4784aa2f5aaa35062a350aae5818650a *01 Tuning.flac
60d827fa1859699354ba17b7f8d45d90 *02 Touch Of Grey.flac
c47a273f05f92c7a3d4a6cb398e995bc *03 New Minglewood Blues.flac
c078fe35086269cfa8c88a38433dad2c *04 Candyman.flac
bae88787387ea5bc60f611cfb3b405da *05 Me And My Uncle.flac
07add6810bdde2c024bdcb2bf1eea380 *06 Mexicali Blues.flac
f9f9be2b1952029d343ac3806cff330c *07 When Push Comes To Shove.flac
53a988b826eff953b9b16eeeac8409aa *08 Beat It On Down The Line.flac
10f4a0418104a99062fd01c405fd8910 *09 Promised Land.flac
8681e2c28107cc46c162f6c3ef29805a *10 China Cat Sunflower.flac
1ce5a4af1b2dba7a1b63099447d1166b *11 I Know You Rider.flac
856d711082ddb48dd86eaea43b2805e8 *12 Tuning.flac
e45163067398b07059efc123c90318fd *13 Iko Iko.flac
ab93d14f8644f83be50e4b2f59878170 *14 Man Smart (Woman Smarter).flac
8814c059593628f1e7a0ca0f2993dbd6 *15 Ship Of Fools.flac
233c8acb0a42ffde7e81ed94b8c5d09a *16 Estimated Prophet.flac
a3f81dd79b8869d996ee9bb9459278f2 *17 Truckin'.flac
28ef4cab7f29d5b088e314041596d3ba *18 Drums.flac
f6fe2927cf9ec838f74860b3df7d08b0 *19 The Other One.flac
2865b6684a780d2186fe176b7b8c6c0f *20 Wharf Rat.flac
165e0ce492dff7e98429ea5b1aa40c15 *21 Throwing Stones.flac
c3d814f938fab21c3cd2da6494c8a198 *22 Not Fade Away.flac
86b63074003152c7300299894ddd7820 *23 Not Fade Away.flac
258e21241574b0c6fb91db5a7254e90b *24 Brokedown Palace.flac
ffp
01 Tuning.flac:94a300c451a8d8387d95740193ed0444
02 Touch Of Grey.flac:3d8be1f603f921771ef6cf13796002a2
03 New Minglewood Blues.flac:c553954229b5d9a869e4739b09ea1ca1
04 Candyman.flac:77530cb9defab46e7541d2e3a39ee158
05 Me And My Uncle.flac:e098ce4ec013e3d74c7cf3595ef2bb41
06 Mexicali Blues.flac:23b142ae792a23bb0471bab119b0bf1b
07 When Push Comes To Shove.flac:e7d121d2e9e9db3a2ae5c29ef00a1eff
08 Beat It On Down The Line.flac:565c8b05940960e65a0786a12225d761
09 Promised Land.flac:775da2bc5d8bc7a462e2a863b6b936e4
10 China Cat Sunflower.flac:54c4b826ebc68b2c31ba9a1f800af5f5
11 I Know You Rider.flac:89872e89a945f9786cf075ad903a6b23
12 Tuning.flac:4c26427ce2e9a9ce30470d08275592bc
13 Iko Iko.flac:44a0e633c04bb5dee02d79f7a360b3e6
14 Man Smart (Woman Smarter).flac:9ed88b0c1dc0085ec8eb46057c4406ed
15 Ship Of Fools.flac:8e22dc4d58e8e79818354fc8042c6e20
16 Estimated Prophet.flac:c66ca85c83652cd481412680fefaa0ac
17 Truckin'.flac:5900e1d575813e056aa6856083d86ba6
18 Drums.flac:63064775b72ee5b16d852421c25e2843
19 The Other One.flac:5ac14bd96d1e1df8c7fa5eeed3451ca3
20 Wharf Rat.flac:4b5c9b8a0ecdb9289ede843a869e1c08
21 Throwing Stones.flac:1b34854076f8dc9cbd2c444a1201c8cf
22 Not Fade Away.flac:f6681d70f10c41a9517a22d094e0f976
23 Not Fade Away.flac:d3547ab85c99bd8900d62415148f0662
24 Brokedown Palace.flac:c6d3defd1ea60f4dea756e9c16d771c5

Comments
Add Comment
Other Sources (comments)
AUD>DAT>CDR; via Easy Jim;... (1) SBD > MC > C > DAT > CD >... (1) flac16; Source:... (0) flac16; Recording... (0) flac16; Source:... (0) flac16; Recording... (0) flac24; Recording... (0) flac16; Recording... (0) flac16; Source Info:... (0)
Date User Comment