Browse Collections Artists Sources   Search Dates

Add Show    List Management    Help


Garcia 11/12/91
The Spectrum, Philadelphia, PA
Comments Add Comment    Source Collectors    Add to Collection    Add to Want List    History
Source # 140703 Other Sources
Entered by Joe Jupille
Checksums Garcia1991-11-12.ffp , Garcia1991-11-12.md5
Disc Counts 0 / 0
Media Size
Uncompressed: 1.83 GB (1969820908 bytes)
Date Circulated
Date Added
01/17/2018
01/17/2018
Source Summary JGB; flac24; : (FOB) Unknown Sony Mics > Sony TC-D5 > Sony WMD-6 > Master Cassette; Transfer: Master Cassette > Sony WMD-6 > Edirol R09-HR > wav 24/48 Lineage: iZotope RX6 Advanced > iZotope Ozone 5 Advanced > CD Wave > TLH > Flac 24; edited and mastered SIRMick January 2018 
Source Information - Download Text | Download Zip
Jerry Garcia Band
The Spectrum,
Philadelphia, PA
11/12/1991

Source : (FOB) Unknown Sony Mics > Sony TC-D5 > Sony WMD-6 > Master Cassette
Transfer: Master Cassette > Sony WMD-6 > Edirol R09-HR > wav  24/48
Lineage: iZotope RX6 Advanced > iZotope Ozone 5 Advanced > CD Wave > TLH > Flac 24



Set I

01   tuning
02   How Sweet It Is (To Be Loved By You)
03   And It Stoned Me
04   He Ain't Give You None
05   Run for the Roses
06   Struggling Man
07   Ain't No Bread In The Breadbox
08   My Sisters And Brothers
09   Deal


Set II

01   Bright Side Of The Road
02   Shining Star
03   Waiting For A Miracle
04   Knockin' On Heaven's Door
05   Evangeline
06   Don't Let Go
07   Let's Spend The Night Together

encore

Wonderful World




Jerry Garcia - guitar, vocals
John Kahn - bass
David Kemper - drums
Melvin Seals - Hammond B3
Jackie LaBranch - backing vocals
Gloria Jones - backing vocals



Comments:

John was patched out of a friend but can't recall what mics he was using.


Notes:

- John was a little late getting to his seat because of problems with security so missed the start.  Track 1 and the first 1:45 of  "How Sweet It Is" have been patched in.  I also patched in a small section of crowd after "Evangeline" for continuity purposes. Source used is shnid 97072 - Thank you Jeff Travitz and David Minches.



A BS Production

Taped and transferred by John Bleich

edited and mastered
SIRMick
January 2018


shntool output:

    length     expanded size    cdr  WAVE problems  fmt   ratio  filename
     1:00.520      17429804 B   cxx   --   ---xx   flac  0.6407  jgb19991-11-12s1t01.flac
     7:17.933     126124844 B   cxx   --   ---xx   flac  0.6775  jgb19991-11-12s1t02.flac
     9:57.947     172208684 B   cxx   --   ---xx   flac  0.6824  jgb19991-11-12s1t03.flac
    10:58.827     189742124 B   cxx   --   ---xx   flac  0.6828  jgb19991-11-12s1t04.flac
     6:13.493     107566124 B   cxx   --   ---xx   flac  0.6875  jgb19991-11-12s1t05.flac
     7:42.867     133305644 B   cxx   --   ---xx   flac  0.6878  jgb19991-11-12s1t06.flac
     8:35.240     148389164 B   cxx   --   ---xx   flac  0.6994  jgb19991-11-12s1t07.flac
     3:59.680      69027884 B   cxx   --   ---xx   flac  0.6876  jgb19991-11-12s1t08.flac
     9:08.293     157908524 B   cxx   --   ---xx   flac  0.7117  jgb19991-11-12s1t09.flac
     6:03.280      69749804 B   cxx   --   ---xx   flac  0.5726  jgb19991-11-12s2t01.flac
    10:35.160     121950764 B   cxx   --   ---xx   flac  0.5731  jgb19991-11-12s2t02.flac
     6:31.107      75092524 B   cxx   --   ---xx   flac  0.5736  jgb19991-11-12s2t03.flac
    11:08.613     128373804 B   cxx   --   ---xx   flac  0.5417  jgb19991-11-12s2t04.flac
     6:56.573      79982124 B   cxx   --   ---xx   flac  0.5702  jgb19991-11-12s2t05.flac
    14:21.507     165409324 B   cxx   --   ---xx   flac  0.5508  jgb19991-11-12s2t06.flac
    11:36.253     133680684 B   cxx   --   ---xx   flac  0.5863  jgb19991-11-12s2t07.flac
     6:24.787      73879084 B   cxx   --   ---xx   flac  0.5274  jgb19991-11-12s2t08.flac
   138:32.080    1969820908 B                            0.6343  (17 files)

Show Checksums
Garcia1991-11-12.ffp
jgb19991-11-12s1t01.flac:b64c231387aafe0df3ac75e9efa3628f
jgb19991-11-12s1t02.flac:83f3b9171896ff94451992f41b643af8
jgb19991-11-12s1t03.flac:c38e9aa0ac9aeefcf99bc4fb4602c8e0
jgb19991-11-12s1t04.flac:0652637770a310cf24b0bbfab6175b4b
jgb19991-11-12s1t05.flac:22fe288be12ec418aaba6605df21229e
jgb19991-11-12s1t06.flac:494bebe94609aaf984b378c361cc5cd7
jgb19991-11-12s1t07.flac:07be097be3489ad7aee0224a88fc2196
jgb19991-11-12s1t08.flac:e691d3102c9cd452e327acaa7d269980
jgb19991-11-12s1t09.flac:94cd718c42dcb1f6d317b9c3727fa42a
jgb19991-11-12s2t01.flac:8b1b8723bb51eabaab74b8fdf318f95b
jgb19991-11-12s2t02.flac:7d22c1fcf3709eb8e1940a2af8007a1b
jgb19991-11-12s2t03.flac:0418e4bc0ab0549d649aaf0885cdd3ec
jgb19991-11-12s2t04.flac:3f8323cf703e0b219d83f9e17f3bfa7c
jgb19991-11-12s2t05.flac:b160e4774d5baccde390e9613ccc1f3d
jgb19991-11-12s2t06.flac:9d4b2ad6075551112bb5f117c20b8914
jgb19991-11-12s2t07.flac:6595629c561593db8de893a095759689
jgb19991-11-12s2t08.flac:003d9ebe0476a9ea0814299703f652c0
Garcia1991-11-12.md5
95d459acc6f07183cbbdf3d64e2338c5 *jgb19991-11-12s1t01.flac
b7fd6b9ef8ab106e0b513b564d3cbcd8 *jgb19991-11-12s1t02.flac
cc53c91fb3d0636a1a37ebc7894f157c *jgb19991-11-12s1t03.flac
d788424a201a5f3196405fa4efd7c0fb *jgb19991-11-12s1t04.flac
14598a9f68f35d6d0426043f318ffd4d *jgb19991-11-12s1t05.flac
403eeda3055dfefe2c90c3853a284873 *jgb19991-11-12s1t06.flac
f4507e17b5561a91ad182bdcf20f96c8 *jgb19991-11-12s1t07.flac
af273d28f6a58be654dc9f87bd2ec429 *jgb19991-11-12s1t08.flac
2710d121c6a3426b49849619e447a2a9 *jgb19991-11-12s1t09.flac
e404f264d6790903a0f683c41949f06c *jgb19991-11-12s2t01.flac
2a2e1e7e9e698cdb391132b897d2aa4c *jgb19991-11-12s2t02.flac
eda298d62443f0fd731666056d08ad17 *jgb19991-11-12s2t03.flac
1a15f545d7994ada3f0ec43694f5cd47 *jgb19991-11-12s2t04.flac
d66343b056a1d775fc3fd276f20b901c *jgb19991-11-12s2t05.flac
d9da637ff5e11079614985ee38e744eb *jgb19991-11-12s2t06.flac
64a53d879426528abed6cd1cef55117d *jgb19991-11-12s2t07.flac
66341d3707ba30fd09a8af3e0e10d7fa *jgb19991-11-12s2t08.flac

Comments
Add Comment
Other Sources (comments)
Jerry Garcia Band: FOB (NAK... (5) JGB; flac16; : (FOB)... (0)
Date User Comment